<?xml version="1.0" standalone="no"?>
<!DOCTYPE svg PUBLIC "-//W3C//DTD SVG 1.1//EN" "http://www.w3.org/Graphics/SVG/1.1/DTD/svg11.dtd" >
<svg>
<metadata>
Created by FontForge 20120731 at Sat Feb 15 23:52:17 2014
 By root
</metadata>
<defs>
<font id="Charter-Icons-Regular" horiz-adv-x="1792" >
  <font-face 
    font-family="Charter-Icons"
    font-weight="400"
    font-stretch="normal"
    units-per-em="1792"
    panose-1="0 0 5 0 0 0 0 0 0 0"
    ascent="1536"
    descent="-256"
    bbox="-29 -266 1828 1548"
    underline-thickness="0"
    underline-position="0"
    unicode-range="U+0020-E282"
  />
<missing-glyph horiz-adv-x="896" 
 />
    <glyph glyph-name=".notdef" horiz-adv-x="896" 
 />
    <glyph glyph-name="space" unicode=" " horiz-adv-x="250" 
 />
    <glyph glyph-name="uniE000" unicode="&#xe000;" 
d="M798 88h-676q-46 0 -79 33.5t-33 80.5v989q0 47 33 80t79 33h1393q46 0 79 -33t33 -80v-372q-19 9 -42 9q-15 0 -33 -5v351h-1468v-896h714v-190zM1614 -217q81 103 122.5 226t41.5 252q0 128 -41.5 251t-122.5 226q-10 15 -29 15q-12 0 -23 -8q-15 -12 -15 -30
q0 -12 8 -23q73 -94 110.5 -205t37.5 -227t-37.5 -227t-110.5 -205q-8 -11 -8 -22q0 -18 15 -30q11 -8 23 -8q19 0 29 15zM1346 -152q7 14 7 27v771q0 13 -7 27q-13 20 -36 20q-20 0 -35 -15l-242 -243q-4 -2 -7 -2h-153v-345h153q3 0 7 -2l242 -243q15 -15 35 -15
q24 0 36 20zM1480 -60q112 143 112 326t-112 326q-12 15 -30 15q-12 0 -23 -8q-14 -12 -14 -30q0 -13 7 -23q96 -123 96 -280q0 -155 -96 -280q-7 -10 -7 -23q0 -18 14 -30q11 -8 23 -8q18 0 30 15zM1027 358q34 0 58 24l193 192v-628l-193 193q-24 24 -58 24h-79v195h79z
" />
    <glyph glyph-name="uniE001" unicode="&#xe001;" 
d="M1732 1045q29 -29 29 -70v-867q0 -41 -29 -70t-69 -29h-1058q17 7 26 18l92 91q22 24 24 56h949v786h-1287v-157h-65v172q0 41 29 70t69 29h1221q40 0 69 -29zM681 176q0 -7 -5 -12l-91 -91q-5 -5 -12 -5q-5 0 -12 5l-48 48q-31 -15 -55 -23v-72q0 -7 -5 -12t-12 -5h-129
q-17 0 -17 17v72q-25 8 -56 23l-44 -44q-5 -5 -12 -5q-5 0 -12 5l-91 92q-5 5 -5 12q0 6 5 11l44 44q-16 29 -23 56h-72q-17 0 -17 17v129q0 7 5 12t12 5h71q11 34 23 56l-43 43q-5 7 -5 12q0 7 5 12l91 91q5 5 12 5q8 0 12 -5l43 -42q29 16 57 23v71q0 7 5 12t12 5h129
q7 0 12 -5t5 -12v-71q28 -7 56 -23l43 42q5 5 12 5q8 0 12 -5l91 -91q5 -5 5 -12t-5 -12l-43 -43q16 -28 23 -56h72q7 0 12 -5t5 -12v-129q0 -7 -5 -12t-12 -5h-72q-7 -25 -23 -56l47 -48q5 -4 5 -12zM470 210.5q43 25.5 68.5 68.5t25.5 94t-25.5 94.5t-68.5 69t-94 25.5
t-94 -25.5t-68.5 -69t-25.5 -94.5t25.5 -94t68.5 -68.5t94 -25.5t94 25.5z" />
    <glyph glyph-name="uniE002" unicode="&#xe002;" 
d="M1733 1119q31 -31 31 -75v-931q0 -44 -31 -75.5t-75 -31.5h-1089q39 48 39 114v64h1085v845h-1382v-175q-26 2 -40 2q-21 0 -31 -1v189q0 44 31 75t75 31h1312q44 0 75 -31zM532 526.5q10 -10.5 10 -24.5v-382q0 -47 -33.5 -81t-81.5 -34h-302q-47 0 -81 34t-34 81v382
q0 14 10.5 24.5t24.5 10.5h21v40q0 57 28 105t76 76t105 28t105 -28t76.5 -76t28.5 -105v-40h22q15 0 25 -10.5zM414 537v40q0 37 -18.5 69t-50.5 50.5t-70 18.5q-37 0 -69 -18.5t-51 -50.5t-19 -69v-40h278zM81 467v-347q0 -19 13 -31.5t31 -12.5h302q19 0 32 12.5t13 31.5
v347h-391zM237 256q-29 19 -29 56q0 28 19.5 47.5t47.5 19.5t48 -19.5t20 -47.5q0 -36 -29 -56l31 -93h-140z" />
    <glyph glyph-name="uniE003" unicode="&#xe003;" 
d="M782 747q14 14 14 34v683q0 19 -14 33t-34 14h-683q-19 0 -33 -13.5t-14 -33.5v-683q0 -20 13.5 -34t33.5 -14h683q20 0 34 14zM1749 747q14 14 14 34v683q0 19 -14 33t-34 14h-683q-19 0 -33 -13.5t-14 -33.5v-683q0 -20 13.5 -34t33.5 -14h683q20 0 34 14zM701 1416
v-588h-589v588h589zM1668 1416v-588h-589v588h589zM782 -220q14 14 14 34v683q0 19 -14 33t-34 14h-683q-19 0 -33 -13.5t-14 -33.5v-683q0 -20 13.5 -34t33.5 -14h683q20 0 34 14zM1749 -220q14 14 14 34v683q0 19 -14 33t-34 14h-683q-19 0 -33 -13.5t-14 -33.5v-683
q0 -20 13.5 -34t33.5 -14h683q20 0 34 14zM701 449v-588h-589v588h589zM1668 449v-588h-589v588h589z" />
    <glyph glyph-name="uniE004" unicode="&#xe004;" 
d="M859.5 914.5q10.5 10.5 10.5 25.5v227q0 15 -10.5 25.5t-25.5 10.5h-768q-15 0 -25.5 -10.5t-10.5 -25.5v-227q0 -15 10.5 -25.5t25.5 -10.5h768q15 0 25.5 10.5zM1769.5 914.5q10.5 10.5 10.5 25.5v227q0 15 -10.5 25.5t-25.5 10.5h-768q-15 0 -25.5 -10.5t-10.5 -25.5
v-227q0 -15 10.5 -25.5t25.5 -10.5h768q15 0 25.5 10.5zM798 1131v-155h-696v155h696zM1708 1131v-155h-696v155h696zM859.5 471.5q10.5 10.5 10.5 25.5v227q0 15 -10.5 25.5t-25.5 10.5h-768q-15 0 -25.5 -10.5t-10.5 -25.5v-227q0 -15 10.5 -25.5t25.5 -10.5h768
q15 0 25.5 10.5zM1769.5 471.5q10.5 10.5 10.5 25.5v227q0 15 -10.5 25.5t-25.5 10.5h-768q-15 0 -25.5 -10.5t-10.5 -25.5v-227q0 -15 10.5 -25.5t25.5 -10.5h768q15 0 25.5 10.5zM798 688v-155h-696v155h696zM1708 688v-155h-696v155h696zM859.5 27.5q10.5 10.5 10.5 25.5
v227q0 15 -10.5 25.5t-25.5 10.5h-768q-15 0 -25.5 -10.5t-10.5 -25.5v-227q0 -15 10.5 -25.5t25.5 -10.5h768q15 0 25.5 10.5zM1769.5 27.5q10.5 10.5 10.5 25.5v227q0 15 -10.5 25.5t-25.5 10.5h-768q-15 0 -25.5 -10.5t-10.5 -25.5v-227q0 -15 10.5 -25.5t25.5 -10.5h768
q15 0 25.5 10.5zM798 244v-155h-696v155h696zM1708 244v-155h-696v155h696z" />
    <glyph glyph-name="uniE005" unicode="&#xe005;" 
d="M1756 987.5q12 11.5 12 27.5v247q0 16 -12 27.5t-28 11.5h-1667q-16 0 -27.5 -11.5t-11.5 -27.5v-247q0 -16 11.5 -27.5t27.5 -11.5h1667q16 0 28 11.5zM1689 1223v-169h-1588v169h1588zM1756.5 506.5q11.5 11.5 11.5 27.5v246q0 17 -11.5 28.5t-28.5 11.5h-1667
q-16 0 -27.5 -12t-11.5 -28v-246q0 -16 11.5 -27.5t27.5 -11.5h1667q17 0 28.5 11.5zM1689 741v-168h-1588v168h1588zM1756 24.5q12 11.5 12 27.5v247q0 16 -11.5 27.5t-28.5 11.5h-1667q-16 0 -27.5 -11.5t-11.5 -27.5v-247q0 -16 11.5 -27.5t27.5 -11.5h1667q16 0 28 11.5
zM1689 260v-168h-1588v168h1588z" />
    <glyph glyph-name="uniE006" unicode="&#xe006;" 
d="M1759.5 1292q11.5 -12 11.5 -28v-248q0 -16 -11.5 -27.5t-27.5 -11.5h-1677q-16 0 -28 11.5t-12 27.5v248q0 17 12 28.5t28 11.5h1677q16 0 27.5 -12zM431 1225v-169h1261v169h-1261zM1759.5 808q11.5 -12 11.5 -28v-248q0 -16 -11.5 -27.5t-27.5 -11.5h-1677
q-17 0 -28.5 11.5t-11.5 27.5v248q0 17 12 28.5t28 11.5h1677q16 0 27.5 -12zM431 741v-169h1261v169h-1261zM1759.5 323.5q11.5 -11.5 11.5 -27.5v-248q0 -16 -11.5 -27.5t-27.5 -11.5h-1677q-17 0 -28.5 11.5t-11.5 27.5v248q0 16 11.5 27.5t28.5 11.5h1677
q16 0 27.5 -11.5zM431 257v-170h1261v170h-1261z" />
    <glyph glyph-name="uniE007" unicode="&#xe007;" 
d="M1759.5 822.5q11.5 -11.5 11.5 -28.5v-310q0 -17 -11.5 -29t-28.5 -12h-173q-21 -69 -56 -133l115 -115q12 -12 12 -28q0 -17 -12 -29l-220 -219q-10 -12 -28 -12q-17 0 -29 12l-115 115q-65 -35 -133 -54v-175q0 -17 -11.5 -29t-28.5 -12h-310q-17 0 -29 12t-12 29v175
q-69 19 -132 54l-106 -106q-14 -12 -29 -12q-16 0 -28 12l-220 220q-11 13 -11 28q0 16 11 29l105 105q-33 60 -55 133h-173q-17 0 -29 12t-12 29v310q0 16 12 28t29 12h171q22 73 55 135l-103 103q-11 13 -11 29t11 29l220 219q11 12 28 12t29 -12l102 -102q60 33 136 56
v169q0 17 12 29t29 12h310q17 0 28.5 -12t11.5 -29v-169q75 -22 136 -56l102 102q12 12 29 12t29 -12l219 -219q12 -12 12 -29t-12 -29l-103 -103q37 -68 55 -135h172q17 0 28.5 -11.5zM1528 753q-14 0 -25 9t-14 22q-23 93 -70 171q-6 9 -6 21q0 17 12 29l96 96l-162 162
l-96 -95q-12 -12 -28 -12q-10 0 -21 6q-80 48 -172 71q-14 4 -22.5 15t-8.5 24v160h-229v-160q0 -13 -8.5 -24t-22.5 -15q-91 -23 -171 -71q-11 -6 -22 -6q-16 0 -28 12l-96 95l-162 -162l96 -96q12 -12 12 -29q0 -13 -5 -21q-49 -81 -71 -171q-3 -14 -14 -22.5t-25 -8.5
h-162v-229h164q13 0 24 -8.5t15 -22.5q24 -93 71 -169q6 -10 6 -21q0 -16 -12 -28l-99 -99l162 -162l99 99q12 12 29 12q12 0 21 -6q81 -48 168 -69q13 -3 22 -14t9 -25v-166h229v166q0 14 9 25t22 14q87 21 168 69q9 6 21 6q17 0 29 -12l109 -109l162 163l-108 108
q-12 12 -12 28q0 12 6 21q48 80 71 169q3 14 14 22.5t25 8.5h163v229h-162zM978.5 1070q33.5 -34 33.5 -81t-33.5 -81t-81.5 -34q-47 0 -80.5 34t-33.5 81t33.5 81t80.5 34q48 0 81.5 -34zM1000.5 788q11.5 -12 11.5 -29v-558q0 -17 -12 -29q-11 -11 -28 -11h-150
q-16 0 -28 12t-12 28v518h-49v81h239q17 0 28.5 -12z" />
    <glyph glyph-name="uniE008" unicode="&#xe008;" 
d="M1742 1480q28 -28 28 -68v-632q0 -40 -28 -68t-68 -28h-632q-40 0 -68 28t-28 68v190l64 48v-238q0 -13 9.5 -22.5t22.5 -9.5h632q13 0 22.5 9.5t9.5 22.5v632q0 13 -9.5 22.5t-22.5 9.5h-632q-13 0 -22.5 -9.5t-9.5 -22.5v-235l-64 48v187q0 40 28 68t68 28h632
q40 0 68 -28zM868 991l-181 -136q-9 -6 -19 -6q-8 0 -14 3q-18 10 -18 29v103h-68h-2h-1q-83 0 -161.5 -28.5t-142.5 -82.5q-63 -53 -104.5 -124.5t-56.5 -151.5q-2 -11 -11 -18.5t-21 -7.5t-20.5 8t-10.5 19q-6 38 -6 76q0 108 43 209q41 97 115 171q75 75 170 115
q101 42 209 42h68v102q0 19 18 29q6 3 14 3q10 0 19 -6l180 -134l143 -108zM700 1250v-71q0 -13 -9.5 -22.5t-22.5 -9.5h-100q-95 0 -181 -36t-153 -103q-90 -90 -122 -209q44 69 108 123q72 61 161.5 93.5t183.5 32.5h3h100q13 0 22.5 -9.5t9.5 -22.5v-71l130 97l74 55z
M1169 1135h104l16 114h57l-42 -303h-57l19 138h-104l-19 -138h-56l41 303h57zM1552 964q-33 -18 -92 -18h-95l42 303h48q68 0 100 -16q33 -15 54 -50q20 -33 20 -79q0 -45 -21 -84q-21 -37 -56 -56zM1555 1042q16 23 16 61q0 32 -11 51q-13 21 -33 31q-22 11 -56 11h-14
l-27 -197h19q41 0 62 8q27 9 44 35zM703 660q28 -28 28 -68v-505q0 -39 -28 -67t-68 -28h-505q-39 0 -67 28t-28 67v426q15 -6 31 -6h2q19 0 31 5v-425q0 -13 9 -22.5t22 -9.5h505q13 0 22.5 9.5t9.5 22.5v505q0 14 -9 23t-23 9h-463q10 35 24 64h439q40 0 68 -28zM278 261
q8 7 8 19q0 11 -5 18q-3 7 -29 34q-29 32 -33 40q-10 19 -10 36q0 24 15 42q19 23 52 23q46 0 75 -41l-35 -31q-21 28 -39 28q-10 0 -16 -6q-6 -4 -6 -13q0 -6 6 -15q7 -11 33 -38l20 -22q9 -12 16 -29q5 -13 5 -26q0 -29 -22 -51q-21 -21 -56 -21q-51 0 -83 49l36 29
q23 -33 47 -33q11 0 21 8zM527 229q-27 -14 -78 -14h-78l34 252h40q58 0 84 -13q27 -13 45 -42q17 -29 17 -66q0 -38 -18 -70q-18 -31 -46 -47zM529 294q14 22 14 51q0 24 -10 42q-8 16 -27 26q-17 10 -47 10h-12l-22 -164h15q37 0 53 6q22 7 36 29z" />
    <glyph glyph-name="uniE009" unicode="&#xe009;" 
d="M1704 1013.5q70 -208.5 70 -427.5q0 -218 -70.5 -426.5t-207.5 -385.5q-12 -15 -30 -15q-13 0 -24 8q-14 12 -14 30q0 13 8 24q129 166 195.5 363t66.5 402q0 206 -66.5 403t-195.5 363q-8 11 -8 24q0 18 14 30q10 7 23 7q19 0 31 -14q138 -177 208 -385.5zM1036 1248
v-1324q0 -41 -31 -55q-12 -3 -19 -3q-23 0 -43 20l-320 320q16 35 26 83l311 -312v1218l-414 -413h-210l-1 -1v-76q-26 2 -38 2q-14 0 -38 -2v76q0 32 22.5 54.5t54.5 22.5h179l428 429q20 20 42 20q12 0 20 -4q31 -14 31 -55zM1402.5 875q47.5 -141 47.5 -289t-47.5 -288.5
t-140.5 -260.5q-10 -15 -30 -15q-12 0 -23 8q-15 12 -15 30q0 13 8 24q85 110 128.5 239t43.5 264t-43.5 264t-128.5 238q-8 11 -8 24q0 19 15 29q11 8 23 8q18 0 30 -14q93 -120 140.5 -261zM437.5 593q64.5 -38 102 -102.5t37.5 -140.5t-37.5 -140.5t-102 -102.5
t-140.5 -38t-140.5 38t-102.5 102.5t-38 140.5t38 140.5t102.5 102.5t140.5 38t140.5 -38zM475 468l-32 33q-4 4 -8 0q-120 -98 -222 -202l-6 -6l-11 -11l-11 10l-3 3l-50 45q-5 2 -8 -1l-31 -33q-1 -1 -1 -4l2 -4q43 -36 78 -70h1l2 -2l19 -18l4 -4l4 4l23 24
q117 120 249 228q2 1 2 4q2 2 -1 4z" />
    <glyph glyph-name="uniE010" unicode="&#xe010;" 
d="M532.5 1290.5q28.5 -28.5 28.5 -69.5v-1118q0 -40 -28.5 -69t-69.5 -29h-346q-40 0 -69 29t-29 69v1118q0 41 29 69.5t69 28.5h346q41 0 69.5 -28.5zM1140.5 1290.5q28.5 -28.5 28.5 -69.5v-1118q0 -40 -28.5 -69t-69.5 -29h-347q-40 0 -69 29t-29 69v1118q0 41 29 69.5
t69 28.5h347q41 0 69.5 -28.5zM1747.5 1290.5q28.5 -28.5 28.5 -69.5v-1118q0 -40 -28.5 -69t-69.5 -29h-346q-40 0 -69 29t-29 69v1118q0 41 29 69.5t69 28.5h346q41 0 69.5 -28.5zM486.5 1244.5q-9.5 9.5 -23.5 9.5h-346q-13 0 -23 -9.5t-10 -23.5v-1118q0 -13 10 -23
t23 -10h346q14 0 23.5 10t9.5 23v1118q0 14 -9.5 23.5zM1093.5 1244.5q-9.5 9.5 -22.5 9.5h-347q-13 0 -22.5 -9.5t-9.5 -23.5v-1118q0 -14 9.5 -23.5t22.5 -9.5h347q13 0 22.5 9.5t9.5 23.5v1118q0 14 -9.5 23.5zM1701.5 1244.5q-9.5 9.5 -23.5 9.5h-346q-13 0 -23 -9.5
t-10 -23.5v-1118q0 -13 10 -23t23 -10h346q14 0 23.5 10t9.5 23v1118q0 14 -9.5 23.5zM416 807v-48h-57l-6 -45h50v-47h-57l-16 -115h-48l16 115h-46l-16 -115h-47l15 115h-52v47h59l7 45h-51v48h57l14 106h47l-14 -106h46l15 106h48l-15 -106h51zM1024 807v-48h-58l-6 -45
h50v-47h-57l-15 -115h-48l15 115h-46l-15 -115h-48l16 115h-53v47h59l7 45h-51v48h57l15 106h46l-13 -106h46l14 106h48l-14 -106h51zM264 759l-6 -45h46l7 45h-47zM872 759l-6 -45h46l6 45h-46z" />
    <glyph glyph-name="uniE011" unicode="&#xe011;" 
d="M1473.5 926.5q17.5 -17.5 17.5 -42.5v-876q0 -65 -32.5 -121t-88.5 -88.5t-121 -32.5h-694q-65 0 -121 32.5t-88.5 88.5t-32.5 121v876q0 25 17.5 42.5t42.5 17.5h68v112q0 124 62 229t167.5 167t229.5 62t229.5 -62t167 -167t61.5 -229v-112h73q25 0 42.5 -17.5z
M1239 944v112q0 92 -45.5 170t-123.5 123.5t-170 45.5t-170.5 -45.5t-124 -123.5t-45.5 -170v-112h679zM432 824v-816q0 -33 16.5 -61t45 -44.5t61.5 -16.5h694q50 0 86 36t36 86v816h-939zM1024 116q0 -5 -4 -13q-6 -8 -16 -8h-208q-11 0 -16 8q-6 8 -3 18l54 180
q-30 18 -48 48.5t-18 66.5t18.5 67t49.5 49t67 18t67 -18t49 -49t18 -67t-18 -67t-48 -48l55 -180q1 -2 1 -5z" />
    <glyph glyph-name="uniE012" unicode="&#xe012;" 
d="M1443 923q17 -17 17 -41v-856q0 -64 -32 -118t-86 -86t-118 -32h-677q-64 0 -118.5 32t-86.5 86t-32 118v856q0 24 17 41t42 17h846v109q0 90 -44.5 166t-121 120.5t-166.5 44.5q-82 0 -152 -37q-69 -35 -115 -98q-17 -23 -47 -23q-20 0 -35 11q-23 17 -23 46q0 20 11 35
q63 84 156 133q98 50 205 50q121 0 224 -60.5t163.5 -163.5t60.5 -224v-109h71q24 0 41 -17zM427 823v-797q0 -50 35.5 -85t84.5 -35h677q50 0 85 35t35 85v797h-917zM769.5 359.5q-17.5 29.5 -17.5 64.5q0 36 17.5 66t48 47.5t65.5 17.5t65.5 -17.5t48 -47.5t17.5 -66
q0 -35 -17.5 -64.5t-46.5 -47.5l53 -176q1 -2 1 -6q0 -7 -4 -11q-5 -8 -15 -8h-204q-10 0 -15 8q-6 8 -3 17l53 176q-29 18 -46.5 47.5z" />
    <glyph glyph-name="uniE013" unicode="&#xe013;" 
d="M1764 641q0 -155 -60 -296q-57 -137 -163 -243t-243 -163q-141 -60 -297 -60t-297 60q-45 18 -93 47v8v76q58 -40 121 -66q128 -54 269 -54t270 54q123 52 220 148q96 97 148 220q54 128 54 269q0 143 -54 270q-52 123 -148 220q-97 96 -220 148q-129 54 -270 54
t-269 -54q-123 -52 -220 -148q-96 -97 -148 -220q-37 -91 -49 -180q-28 4 -44 4q-9 0 -27 -2q12 105 55 205q57 137 163 243q105 105 242 163q141 60 297 60t297 -60q137 -57 243 -163t163 -243q60 -141 60 -297zM1025.5 1047.5q10.5 -10.5 10.5 -24.5v-346h284
q15 0 25.5 -10.5t10.5 -25.5q0 -14 -10.5 -24.5t-25.5 -10.5h-355v417q0 14 10.5 24.5t24.5 10.5q15 0 25.5 -10.5zM533.5 403q10.5 -10 10.5 -25v-384q0 -48 -33.5 -82t-81.5 -34h-304q-48 0 -82 34t-34 82v384q0 15 10.5 25t25.5 10h20v40q0 57 28.5 105.5t77 77
t105.5 28.5t105 -28.5t76.5 -77t28.5 -105.5v-40h23q14 0 24.5 -10zM415 413v40q0 38 -18.5 70t-50.5 51t-70 19t-70 -19t-51 -51t-19 -70v-40h279zM80 343v-349q0 -19 13 -32t32 -13h304q18 0 31 13t13 32v349h-393zM208 173q0 28 20 47.5t48 19.5t48 -19.5t20 -47.5
q0 -34 -28 -55l22 -72q1 -2 1 -6q0 -5 -3 -10q-7 -7 -15 -7h-91q-9 0 -14 7q-6 7 -3 16l22 72q-27 22 -27 55z" />
    <glyph glyph-name="uniE014" unicode="&#xe014;" 
d="M331 -145l281 316h1037q51 0 87 36t36 87v816q0 51 -36 87t-87 36h-1496q-51 0 -87 -36t-36 -87v-816q0 -51 36 -87t87 -36h107v-289q0 -28 26 -38q8 -3 15 -3q18 0 30 14zM1678 1139q12 -12 12 -29v-816q0 -17 -12 -29t-29 -12h-1055q-19 0 -31 -14l-221 -249v222
q0 17 -12 29t-29 12h-148q-17 0 -29 12t-12 29v816q0 17 12 29t29 12h1496q17 0 29 -12zM757 433q66 34 110 94l-66 48q-32 -44 -80.5 -69t-102.5 -25q-61 0 -112.5 30.5t-82 82t-30.5 112.5t30.5 112.5t82 82t112.5 30.5q53 0 99.5 -23t78.5 -65l65 50q-44 57 -107.5 88.5
t-135.5 31.5q-83 0 -153.5 -41.5t-112 -112t-41.5 -153.5t41.5 -153.5t112 -112t153.5 -41.5q73 0 139 34zM1388 433q66 34 109 94l-66 48q-31 -44 -80 -69t-103 -25q-61 0 -112.5 30.5t-82 82t-30.5 112.5t30.5 112.5t82 82t112.5 30.5q53 0 100 -23t79 -65l65 50
q-44 57 -108 88.5t-136 31.5q-83 0 -153.5 -41.5t-112 -112t-41.5 -153.5t41.5 -153.5t112 -112t153.5 -41.5q74 0 140 34z" />
    <glyph glyph-name="uniE015" unicode="&#xe015;" 
d="M1418.5 1123.5q29.5 -29.5 29.5 -70.5v-249q-17 7 -38 7q-16 0 -29 -4v246q0 14 -9.5 23.5t-23.5 9.5h-1220q-14 0 -24 -9.5t-10 -23.5v-665q0 -14 10 -24t24 -10h120q14 0 24 -9.5t10 -23.5v-181l180 203q11 11 25 11h529v-17q0 -25 11 -50h-525l-229 -258
q-9 -11 -25 -11q-4 0 -12 2q-21 8 -21 32v235h-87q-41 0 -70.5 29.5t-29.5 71.5v665q0 41 29.5 70.5t70.5 29.5h1220q41 0 70.5 -29.5zM228 852v67h457v-67h-457zM1021 852h-269v67h269v-67zM1088 852v67h160v-67h-160zM1732 607.5q31 -91.5 31 -186.5q0 -96 -31 -187.5
t-91 -169.5q-10 -13 -27 -13q-12 0 -20 7q-13 9 -13 26q0 13 7 21q108 140 108 315q0 177 -108 316q-7 8 -7 21q0 17 13 26q8 7 20 7q16 0 27 -13q60 -78 91 -169.5zM1448 702v-564q0 -29 -24 -39q-7 -3 -14 -3q-17 0 -31 14l-177 177h-69q-21 0 -35.5 15t-14.5 35v166
q0 21 14.5 35.5t35.5 14.5h69l177 178q14 14 31 14q6 0 14 -3q24 -11 24 -40zM1625 421q0 -137 -84 -245q-10 -13 -27 -13q-12 0 -20 7q-13 9 -13 26q0 13 7 21q70 89 70 203q0 115 -70 204q-7 8 -7 20q0 17 13 27q8 7 20 7q17 0 27 -13q84 -108 84 -244zM1229 486h-80v-132
h80l145 -144l7 -8v436zM538 588v-67h-310v67h310zM1053 588q-30 -27 -36 -67h-427v67h463z" />
    <glyph glyph-name="uniE016" unicode="&#xe016;" 
d="M1173 313h-627l-252 -284q-10 -12 -28 -12q-5 0 -13 2q-24 10 -24 35v259h-95q-46 0 -78 32t-32 78v732q0 45 32 77.5t78 32.5h1341q46 0 78.5 -32.5t32.5 -77.5v-395q-39 10 -74 11v384q0 15 -10.5 25.5t-26.5 10.5h-1341q-15 0 -26 -10.5t-11 -25.5v-732q0 -15 11 -26
t26 -11h132q15 0 26 -10.5t11 -25.5v-199l199 223q11 12 27 12h627q4 -37 17 -73zM676.5 547.5q59.5 30.5 97.5 84.5l-59 43q-28 -40 -71.5 -62t-92.5 -22q-55 0 -101 27t-73.5 73.5t-27.5 101.5t27.5 101t73.5 73t101 27q47 0 89 -20.5t71 -57.5l58 45q-40 51 -97 79
t-121 28q-75 0 -138 -37t-100 -100.5t-37 -137.5q0 -75 37 -138.5t100 -100.5t138 -37q66 0 125.5 30.5zM1208 613q-28 -44 -41 -91q-28 -5 -51 -5q-75 0 -138 37t-100 100.5t-37 138.5q0 74 37 137.5t100 100.5t138 37q65 0 122 -28t96 -79l-58 -45q-28 37 -70 57.5
t-90 20.5q-55 0 -101 -27t-73.5 -73t-27.5 -101t27.5 -101.5t73.5 -73.5t101 -27q48 0 92 22zM1632 661.5q62 -36.5 98 -98.5t36 -135t-36 -135t-98 -98t-135 -36t-135 36t-98.5 98t-36.5 135t36.5 135t98.5 98.5t135 36.5t135 -36.5zM1669 537q0 3 -1 4l-31 32q-3 4 -7 0
q-115 -94 -214 -194l-5 -5l-11 -11l-11 10l-3 2l-48 43q-4 4 -8 0q-1 -1 -29 -32q-2 -2 -1 -4q0 -2 1 -3q27 -23 52 -46l25 -22l1 -2h1l18 -17l4 -4l4 4l22 23q110 113 239 219q2 1 2 3z" />
    <glyph glyph-name="uniE017" unicode="&#xe017;" 
d="M1174 306h-633l-254 -286q-10 -12 -27 -12q-9 0 -13 2q-24 8 -24 35v261h-97q-46 0 -78.5 32.5t-32.5 78.5v737q0 46 32.5 78.5t78.5 32.5h1352q46 0 78.5 -32.5t32.5 -78.5v-398q-39 10 -74 11v387q0 15 -11 26t-26 11h-1352q-15 0 -26 -11t-11 -26v-737q0 -16 11 -26.5
t26 -10.5h134q15 0 26 -11t11 -26v-201l200 225q11 13 28 13h631q5 -40 18 -74zM673 542.5q60 30.5 99 84.5l-60 43q-29 -40 -72.5 -62t-92.5 -22q-55 0 -102 27.5t-74.5 74t-27.5 101.5t27.5 101.5t74.5 74t102 27.5q47 0 89.5 -20.5t71.5 -58.5l58 45q-40 52 -97 80
t-122 28q-75 0 -139 -37.5t-101.5 -101t-37.5 -138.5t37.5 -138.5t101.5 -101t139 -37.5q66 0 126 30.5zM1208 608q-27 -43 -41 -91q-28 -5 -51 -5q-75 0 -138.5 37.5t-101 101t-37.5 138.5t37.5 138.5t101 101t138.5 37.5q65 0 122.5 -28t97.5 -80l-59 -45q-29 38 -71 58.5
t-90 20.5q-55 0 -101.5 -27.5t-74 -74t-27.5 -101.5t27.5 -101.5t74 -74t101.5 -27.5q51 0 92 22zM1635.5 657.5q62.5 -36.5 99 -99t36.5 -136.5t-36.5 -136.5t-99 -99t-136.5 -36.5t-136 36.5t-98.5 99t-36.5 136.5t36.5 136.5t98.5 99t136 36.5t136.5 -36.5zM1627 261
q4 0 10 4l16 16q4 4 4 10t-4 9l-103 106l-16 16l19 19l100 102q4 4 4 10t-4 10l-16 15q-3 5 -9 5q-5 0 -10 -5l-95 -97l-23 -24l-21 21l-97 100q-3 4 -9 4t-10 -4l-16 -16q-4 -4 -4 -9q0 -4 4 -10l102 -104l17 -17l-22 -22l-97 -99q-4 -6 -4 -10t4 -10l16 -15q4 -4 10 -4
t9 4l101 103l17 18l22 -23l96 -99q4 -4 9 -4z" />
    <glyph glyph-name="uniE018" unicode="&#xe018;" 
d="M486 481h453q-2 -12 -2 -18v-51h-435l-235 -264q-11 -11 -26 -11q-8 0 -12 2q-22 8 -22 32v241h-89q-42 0 -72.5 30t-30.5 73v681q0 43 30.5 73t72.5 30h1250q43 0 73 -30t30 -73v-353q-12 2 -18 2h-51v351q0 14 -10 24.5t-24 10.5h-1250q-14 0 -24 -10.5t-10 -24.5v-681
q0 -14 10 -24t24 -10h124q14 0 24 -10.5t10 -24.5v-185l185 208q9 12 25 12zM413 1021.5q-43 -25.5 -68.5 -68.5t-25.5 -94t25.5 -94t68.5 -68.5t94 -25.5q45 0 85.5 20.5t66.5 57.5l56 -40q-36 -50 -91 -78t-117 -28q-70 0 -129 34.5t-93.5 93.5t-34.5 128q0 70 34.5 129
t93.5 93.5t129 34.5q60 0 113 -26.5t90 -73.5l-54 -42q-27 35 -66 54t-83 19q-51 0 -94 -25.5zM1004 604q-63 7 -115 43t-82 92t-30 120q0 70 34.5 129t93.5 93.5t129 34.5q60 0 113 -26.5t90 -73.5l-54 -42q-27 35 -66.5 54t-82.5 19q-51 0 -94 -25.5t-68.5 -68.5
t-25.5 -94t25.5 -94t68.5 -68.5t94 -25.5h8l-14 -13q-23 -24 -24 -54zM1761 475.5q5 -5.5 5 -12.5v-135q0 -7 -5 -12t-12 -5h-75q-8 -27 -25 -58l50 -50q5 -4 5 -12t-5 -13l-95 -96q-5 -5 -12 -5q-6 0 -13 5l-50 51q-29 -15 -58 -24v-76q0 -7 -5 -12.5t-13 -5.5h-135
q-7 0 -12 5.5t-5 12.5v76q-29 9 -58 24l-46 -46q-4 -6 -12 -6q-7 0 -13 6l-95 95q-5 7 -5 13q0 7 5 12l46 46q-16 26 -25 58h-75q-17 0 -17 17v135q0 8 5 13t12 5h75q9 31 24 59l-45 44q-5 7 -5 13q0 7 5 12l95 96q5 5 13 5t12 -5l45 -45q25 15 59 25v73q0 7 5 12.5t12 5.5
h135q8 0 13 -5t5 -13v-73q31 -9 59 -25l45 45q5 5 13 5t12 -5l95 -96q5 -5 5 -12q0 -6 -5 -13l-45 -44q15 -28 24 -59h75q7 0 12 -5.5zM1484 225.5q45 26.5 71.5 71.5t26.5 99q0 53 -26.5 98t-71.5 71.5t-98 26.5q-54 0 -99 -26.5t-71.5 -71.5t-26.5 -98q0 -54 26.5 -99
t71.5 -71.5t99 -26.5q53 0 98 26.5z" />
    <glyph glyph-name="uniE019" unicode="&#xe019;" 
d="M488 482h454q-2 -6 -2 -18v-51h-437l-235 -265q-12 -12 -26 -12q-6 0 -12 3q-22 8 -22 32v242h-89q-43 0 -73 30t-30 73v683q0 43 30 73.5t73 30.5h1253q43 0 73 -30.5t30 -73.5v-354q-10 2 -17 2h-51v352q0 14 -10.5 24.5t-24.5 10.5h-1253q-14 0 -24.5 -10.5
t-10.5 -24.5v-683q0 -14 10.5 -24t24.5 -10h123q14 0 24.5 -10.5t10.5 -24.5v-186l185 209q12 12 26 12zM521 931h142v-78h-142v-124h148v-78h-238v459h238v-78h-148v-101zM841 729h191v-78h-334l203 381h-171v78h313zM1766 477q5 -5 5 -13v-135q0 -8 -5 -13t-12 -5h-76
q-10 -32 -24 -58l50 -50q5 -4 5 -12t-5 -13l-96 -96q-5 -5 -12 -5q-6 0 -13 5l-50 51q-26 -14 -58 -24v-77q0 -7 -5 -12t-12 -5h-136q-7 0 -12 5t-5 12v77q-32 10 -58 24l-46 -47q-7 -5 -13 -5q-7 0 -12 5l-96 96q-5 7 -5 13q0 7 5 12l46 46q-13 23 -25 58h-75
q-7 0 -12.5 5.5t-5.5 12.5v135q0 8 5.5 13t12.5 5h75q9 31 24 59l-45 45q-5 5 -5 12q0 8 5 13l96 95q5 5 13 5t12 -5l44 -44q28 15 60 24v74q0 8 5 13t12 5h136q7 0 12 -5.5t5 -12.5v-74q32 -9 60 -24l44 44q5 5 13 5t12 -5l96 -95q5 -7 5 -13q0 -7 -5 -12l-45 -45
q15 -28 24 -59h75q7 0 12 -5zM1489 225.5q45 26.5 71.5 71.5t26.5 99t-26.5 99t-71.5 71.5t-99 26.5t-99 -26.5t-71.5 -71.5t-26.5 -99t26.5 -99t71.5 -71.5t99 -26.5t99 26.5z" />
    <glyph glyph-name="uniE020" unicode="&#xe020;" 
d="M497 470h453q-2 -5 -2 -17v-51h-435l-235 -264q-10 -12 -26 -12q-4 0 -12 2q-22 8 -22 32v242h-89q-42 0 -72.5 30t-30.5 72v682q0 42 30.5 72t72.5 30h1250q42 0 72 -30t30 -72v-354q-10 2 -17 2h-51v352q0 14 -10 24t-24 10h-1250q-14 0 -24 -10t-10 -24v-682
q0 -14 10 -24t24 -10h123q14 0 24.5 -10t10.5 -24v-185l185 208q9 11 25 11zM527 1062l125 -339h-68l-26 70h-115l-27 -70h-68l129 339h50zM1061 714q-45 0 -82.5 23.5t-58.5 63t-21 85.5q0 47 20.5 87.5t58 64.5t84.5 24q38 0 74 -19v-77q-29 35 -73 35t-70.5 -34
t-26.5 -80q0 -45 26.5 -78t70.5 -33q43 0 73 35v-77q-40 -20 -75 -20zM823 900q27 -5 41.5 -29t14.5 -54q0 -47 -29 -70.5t-76 -23.5h-102v331h80q100 0 100 -90q0 -45 -29 -64zM745 916q25 0 36 9.5t11 33.5q0 43 -47 43h-8v-86h8zM462 845h78l-41 120h-1zM798.5 784
q16.5 9 16.5 38t-18 37t-50 8h-10v-92h13q32 0 48.5 9zM1771.5 465q5.5 -5 5.5 -12v-135q0 -7 -5 -12.5t-13 -5.5h-75q-9 -29 -24 -58l50 -50q5 -5 5 -12q0 -6 -5 -13l-96 -95q-5 -5 -12 -5q-6 0 -13 5l-50 50q-28 -15 -58 -23v-76q0 -8 -5 -13t-12 -5h-135q-7 0 -12.5 5.5
t-5.5 12.5v76q-28 7 -57 23l-46 -46q-7 -5 -13 -5q-7 0 -12 5l-96 96q-4 5 -4 13t4 12l46 45q-15 29 -24 58h-75q-7 0 -12.5 5.5t-5.5 12.5v135q0 7 5.5 12t12.5 5h74q8 29 24 59l-45 45q-4 5 -4 13t4 12l96 95q5 5 13 5t12 -5l44 -44q28 15 59 24v74q0 7 5 12t13 5h135
q17 0 17 -17v-74q31 -9 60 -24l44 44q5 5 13 5t12 -5l95 -95q5 -5 5 -13t-5 -12l-45 -45q16 -28 25 -59h74q7 0 12.5 -5zM1495 215.5q45 26.5 71.5 71.5t26.5 98q0 54 -26.5 99t-71.5 71.5t-99 26.5q-53 0 -98 -26.5t-71.5 -71.5t-26.5 -99q0 -53 26.5 -98t71.5 -71.5
t98 -26.5q54 0 99 26.5z" />
    <glyph glyph-name="uniE021" unicode="&#xe021;" 
d="M1733.5 1367.5q29.5 -29.5 29.5 -71.5v-890q0 -42 -29.5 -72t-71.5 -30h-824q2 10 2 17v135q0 6 -2 18h857v807h-1321v-444h-50q-7 0 -17 -2v461q0 42 29.5 71.5t71.5 29.5h1254q42 0 71.5 -29.5zM1237 878l-48 48l250 281l189 -170v-91l-184 166zM1295 724h-95l-242 242
l-257 -268l-32 32l-16 15l304 318zM767 468.5q5 -5.5 5 -12.5v-135q0 -7 -5 -12t-12 -5h-76q-10 -32 -24 -58l50 -50q5 -4 5 -12t-5 -13l-95 -96q-4 -4 -12 -4t-13 4l-51 51q-27 -15 -57 -24v-76q0 -7 -5 -12.5t-13 -5.5h-135q-7 0 -12 5.5t-5 12.5v76q-29 9 -58 24l-46 -46
q-4 -5 -12 -5t-13 5l-95 95q-5 7 -5 13q0 7 5 12l45 46q-14 26 -24 58h-75q-7 0 -12.5 5t-5.5 12v135q0 8 5.5 13t12.5 5h74q10 33 25 59l-45 44q-5 7 -5 13q0 7 5 12l95 96q5 5 13 5t12 -5l45 -45q25 15 59 25v74q0 7 5 12t12 5h135q7 0 12.5 -5t5.5 -12v-74q33 -10 59 -25
l45 45q4 5 12 5t12 -5l96 -96q5 -5 5 -12q0 -6 -5 -13l-45 -44q15 -28 24 -59h75q7 0 12 -5.5zM749 650l-7 7h886v-67h-855q0 36 -24 60zM490 218.5q45 26.5 71.5 71.5t26.5 99q0 53 -26.5 98t-71.5 71.5t-98 26.5q-54 0 -99 -26.5t-71.5 -71.5t-26.5 -98q0 -54 26.5 -99
t71.5 -71.5t99 -26.5q53 0 98 26.5z" />
    <glyph glyph-name="uniE022" unicode="&#xe022;" 
d="M1748.5 1379q29.5 -30 29.5 -72v-899q0 -42 -29.5 -72t-71.5 -30h-831q1 5 1 17v137q0 12 -1 17h865v815h-1333v-449h-50q-12 0 -18 -2v466q0 42 30 72t72 30h1265q42 0 71.5 -30zM781 594q0 7 -2 19h796v543h-1061v-329q-22 16 -50 16h-18v381h1197v-679h-878
q16 24 16 49zM774 472q5 -5 5 -12v-137q0 -7 -5 -12t-12 -5h-76q-9 -31 -25 -59l51 -50q5 -4 5 -12t-5 -13l-97 -96q-5 -5 -12 -5q-6 0 -13 5l-50 50q-29 -15 -58 -24v-76q0 -7 -5 -12.5t-13 -5.5h-136q-7 0 -12.5 5.5t-5.5 12.5v76q-32 10 -58 24l-47 -46q-4 -5 -12 -5
t-13 5l-96 96q-5 7 -5 13q0 7 5 12l46 46q-16 30 -24 59h-76q-7 0 -12.5 5t-5.5 12v137q0 7 5.5 12t12.5 5h75q9 31 24 60l-45 45q-5 7 -5 13q0 7 5 12l96 96q5 5 13 5t12 -5l45 -45q27 16 60 25v74q0 8 5.5 13t12.5 5h136q8 0 13 -5t5 -13v-74q33 -10 59 -25l45 45
q5 5 13 5t12 -5l96 -96q6 -4 6 -13q0 -7 -6 -12l-45 -45q17 -33 25 -60h75q7 0 12 -5zM495.5 220q45.5 27 72 72.5t26.5 99.5t-26.5 99.5t-72 72t-99.5 26.5t-99.5 -26.5t-72 -72t-26.5 -99.5t26.5 -100t72 -72.5t99.5 -26.5t99.5 27z" />
    <glyph glyph-name="uniE023" unicode="&#xe023;" 
d="M1775 645q0 -177 -68 -340q-66 -155 -187 -278q-123 -121 -278 -187q-163 -68 -340 -68t-339 68q-158 67 -278 187q-121 123 -187 278q-69 162 -69 340t69 340q66 156 187 277q120 120 278 187q161 69 339 69t340 -69q155 -66 278 -187q121 -121 187 -277
q68 -163 68 -340zM360 1210q94 -40 200 -66q75 149 194 271q-228 -45 -394 -205zM1050 1415q119 -120 195 -271q97 22 201 65q-168 162 -396 206zM755 1281l-6 -7l-3 -4l-6 -8q-2 -2 -2 -3l-9 -11l-1 -2l-7 -9l-3 -4l-5 -7l-3 -5l-5 -7l-3 -4l-4 -7l-4 -5l-4 -6l-3 -6
q-2 -2 -4 -6l-4 -5q-1 -4 -4 -7l-3 -5q-3 -6 -4 -7l-3 -5q-3 -6 -4 -7l-3 -5q-3 -6 -4 -7q0 -1 -2 -5l-1 -2q102 -17 207 -21v287l-3 -3l-2 -2l-10 -9l-3 -3l-7 -7l-4 -4l-6 -6l-4 -4l-6 -6l-4 -4l-5 -6l-4 -4q-4 -4 -5 -6l-5 -4q-1 -2 -5 -6l-4 -5q-2 -3 -5 -5l-4 -5l-5 -6
l-4 -5q-1 -2 -5 -6zM1154 1125l-1 2l-3 5q-3 6 -4 7l-3 5q-3 6 -4 7l-3 5q-3 6 -4 7l-3 5l-4 7l-3 5l-4 6l-3 6l-5 6l-3 5q-5 10 -4 7l-4 5l-4 6l-3 5l-5 7l-3 4q-3 3 -7 9l-2 2q0 1 -8 11l-3 4l-5 7l-4 4l-5 7l-4 4q-1 2 -5 6q-2 4 -4 5l-4 6l-5 5l-4 5l-5 5q-1 2 -5 6
l-4 4l-5 6l-4 4l-6 6l-4 4l-5 6l-4 4l-6 6l-4 4l-7 6l-3 4l-10 9l-3 3l-2 2v-287q105 3 207 21zM120 690h322q1 52 9 103l4 31l12 63q22 93 55 174q-126 33 -227 80q-161 -197 -175 -451zM1510 1140q-111 -50 -227 -79q72 -178 80 -371l322 -1q-14 254 -175 451zM531 690
h327v325q-136 5 -247 27q-73 -169 -80 -352zM1194 1041q-123 -23 -247 -26v-325h326q-8 186 -79 351zM294 151q104 47 229 80q-74 181 -81 370h-322q14 -255 174 -450zM612 251q123 23 246 26v324h-326q7 -182 80 -350zM1273 600l-326 1v-324q123 -3 246 -26q73 168 80 349z
M1633.5 362q44.5 115 51.5 238h-323q-7 -191 -80 -369q121 -30 229 -80q78 96 122.5 211zM652 167l2 -4l4 -7l3 -5l4 -7l3 -6q2 -2 4 -6l3 -5l4 -7l4 -5q3 -6 4 -7l3 -5l4 -6q2 -4 4 -5q2 -4 4 -7l3 -5l5 -6l3 -5l5 -7l3 -4q4 -6 7 -9l1 -2l8 -11l3 -4l6 -7l3 -5l6 -6l3 -5
q4 -4 5 -6l4 -4l5 -6l4 -5q4 -4 5 -6l4 -4t5 -6l5 -5l5 -5l4 -5l5 -5l4 -5q4 -4 6 -5l4 -5l6 -6l4 -3l7 -7l3 -3l10 -9l2 -3q1 0 3 -2v284q-106 -3 -206 -21zM1041 3q4 4 5 6l4 5q4 4 5 6l4 5l6 7l2 4q5 5 8 11l2 2q4 6 7 9q2 2 2 4l6 7l3 4q-1 -3 4 7l4 5q5 10 4 7l3 5l5 6
l3 5l4 7l3 5q3 3 4 7l3 5q2 2 4 6l3 6q3 3 4 7l3 5q3 3 4 7l3 4q-102 18 -206 21v-284l2 2l3 3l10 9l3 3l7 7l4 3l6 6l4 5l5 5l4 5l6 5l4 5l5 5l4 5q4 4 5 6l4 4t5 6l4 5l6 6zM1448 82q-100 42 -204 67q-78 -151 -200 -275q231 41 404 208zM760 -126q-119 121 -193 264
l-6 10q-110 -26 -203 -67q172 -166 402 -207z" />
    <glyph glyph-name="uniE024" unicode="&#xe024;" 
d="M1738.5 1278.5q31.5 -31.5 31.5 -75.5v-737q0 -44 -31.5 -75.5t-75.5 -31.5h-450l-94 71h544q14 0 24.5 10.5t10.5 25.5v737q0 15 -10.5 25.5t-24.5 10.5h-1208q-15 0 -25.5 -10.5t-10.5 -25.5v-72l-69 92q7 37 36.5 62t68.5 25h1208q44 0 75.5 -31.5zM1210 262
q-11 -103 -76 -168q-78 -78 -210 -78q-136 0 -296 81q-163 83 -305 225q-102 102 -174 216t-106 226q-25 88 -25 157q0 26 3 48q12 101 75 164q62 64 168 76q20 2 32 -14l199 -263q7 -8 7 -22q0 -6 -1 -9q-22 -67 -67 -108q-16 -15 -57 -29q-22 -7 -27 -10q93 -157 161 -225
q85 -85 235 -171q9 12 20 32q15 28 28 42q20 22 43.5 37t41 22t23.5 9q3 1 9 1q10 0 22 -7l263 -199q16 -12 14 -33zM633 692q55 12 68 24q-2 10 -2 16q0 18 10 25q-21 45 -24 70l-4 2q-2 0 -7 6q-14 28 -14 62q0 6 2 16q1 5 7 9l10 4q-31 62 -31 88q0 33 21 56q12 14 29 14
h1q2 4 6 16t4 15v2q0 9 9 11q14 7 87 20q29 5 60 5q47 0 64 -17q22 -23 22 -63q0 -38 -16 -68l5 -3q6 -3 6 -10v-19q0 -41 -6 -55l4 -2q8 -5 6 -15l-17 -65q-2 -5 -6 -8l-7 -3q-5 -35 -27 -69q9 -9 9 -24q0 -8 -3 -16q14 -12 68 -24l39 -10q55 -15 70 -30q12 -11 15 -24.5
t3 -34.5v-77h-89l-39 30q-28 20 -61 20q-14 0 -27 -3q-49 -15 -94 -47h-166q-45 36 -67 60q-26 26 -42 47q4 18 15 29q16 15 71 30q9 3 38 10zM1137 250l-231 175q-34 -13 -60 -41q-9 -11 -18 -28q-21 -40 -49 -67q-9 -11 -25 -11q-9 0 -16 4q-42 21 -123.5 73t-153.5 124
q-82 82 -189 269q-4 7 -4 17q0 14 11 25q29 29 78 42q23 8 29 13q23 21 41 59l-175 231q-66 -12 -106 -52q-46 -48 -55 -122q-2 -24 -2 -37q0 -66 22 -139q31 -103 99 -210t164 -203q134 -134 286 -211q144 -73 264 -73q103 0 160 57q41 41 53 105zM1107.5 1036.5
q-10.5 10.5 -10.5 24.5q0 15 10.5 25.5t24.5 10.5h391q15 0 25.5 -10.5t10.5 -25.5q0 -14 -10.5 -24.5t-25.5 -10.5h-391q-14 0 -24.5 10.5zM1107.5 833.5q-10.5 10.5 -10.5 24.5q0 15 10.5 25.5t24.5 10.5h391q15 0 25.5 -10.5t10.5 -25.5q0 -14 -10.5 -24.5t-25.5 -10.5
h-391q-14 0 -24.5 10.5zM1549.5 680.5q10.5 -10.5 10.5 -25.5q0 -14 -10.5 -24.5t-25.5 -10.5h-250q-14 0 -24.5 10.5t-10.5 24.5q0 15 10.5 25.5t24.5 10.5h250q15 0 25.5 -10.5z" />
    <glyph glyph-name="uniE025" unicode="&#xe025;" 
d="M1736 1289q36 -36 36 -86v-1074q0 -33 -16.5 -61.5t-44.5 -45t-61 -16.5h-1513q-33 0 -61 16.5t-44.5 45t-16.5 61.5v1074q0 50 36 86t86 36h1513q50 0 86 -36zM97 1185v-974h1594v974h-1594zM608 663q-5 10 -5 19q0 14 9 24l282 377l126 -170l155 -207q8 -11 8 -25
q0 -10 -4 -18q-12 -22 -36 -22h-115v-159q0 -25 -17.5 -43t-43.5 -18h-147q-25 0 -43 18t-18 43v159h-115q-24 0 -36 22zM800 722q17 0 28.5 -11.5t11.5 -28.5v-180h107v180q0 17 12 28.5t29 11.5h73l-167 225l-169 -225h75zM269 304.5q-12 11.5 -12 28.5v177q0 17 12 29
t29 12h380v-69v-12h-340v-96h1111v96h-340l1 12v69h380q17 0 28.5 -12t11.5 -29v-177q0 -16 -11.5 -28t-28.5 -12h-1192q-17 0 -29 11.5z" />
    <glyph glyph-name="uniE026" unicode="&#xe026;" 
d="M1481 1304q87 -36 155 -104q67 -67 105 -155q38 -91 38 -189q0 -128 -43 -241q-38 -102 -116 -202q-63 -81 -143.5 -156t-215.5 -190q-204 -172 -314 -281q-24 -24 -58 -24q-35 0 -59 24q-110 109 -314 281q-135 115 -215.5 190t-143.5 156q-78 100 -116 202
q-43 113 -43 241q0 98 38 189q38 88 105 155q68 68 155 104q90 39 189 39q100 0 190 -39q87 -36 155 -104q28 -28 59 -71q28 41 58 71q68 68 155 104q90 39 190 39q99 0 189 -39zM1089.5 1204.5q-92.5 -54.5 -146.5 -147t-54 -201.5q0 109 -54.5 201.5t-147 147t-202.5 54.5
q-109 0 -201.5 -54.5t-147 -147t-54.5 -201.5q0 -146 61 -265t156.5 -215t272.5 -246q206 -176 317 -284q116 115 318 285q176 150 271 246t156 214.5t61 264.5q0 109 -54.5 201.5t-147 147t-201.5 54.5q-110 0 -202.5 -54.5z" />
    <glyph glyph-name="uniE027" unicode="&#xe027;" 
d="M1084 23q6 -45 23 -91q-82 -72 -154 -143q-24 -24 -58 -24t-58 24q-116 114 -309 276q-136 116 -214 189t-140 153q-75 97 -114 198q-43 113 -43 238q0 96 38 187q36 85 103 152t152 103q91 38 187 38q97 0 187 -38q86 -36 153 -103q32 -32 58 -70q28 42 58 70
q67 67 152 103q90 38 187 38t187 -38q85 -36 152 -103t103 -152q38 -91 38 -187q0 -125 -43 -238q-34 -92 -103 -184q-39 18 -83 27q72 90 109 186t37 209q0 108 -53.5 199t-144.5 144.5t-199 53.5t-199 -53.5t-144.5 -144.5t-53.5 -199q0 108 -53.5 199t-145 144.5
t-199.5 53.5t-199 -53.5t-144.5 -144.5t-53.5 -199q0 -144 60 -261t154 -211.5t268 -242.5q212 -179 313 -280q92 90 189 175zM1619.5 331.5q69.5 -40.5 110.5 -110t41 -152.5t-41 -152.5t-110.5 -110.5t-151.5 -41q-83 0 -152.5 41t-110.5 110.5t-41 152.5t41 152.5
t110.5 110t152.5 40.5q82 0 151.5 -40.5zM1645.5 92.5q-4.5 4.5 -11.5 4.5h-141v142q0 7 -5 11.5t-12 4.5h-24q-7 0 -11.5 -4.5t-4.5 -11.5v-142h-141q-7 0 -12 -4.5t-5 -11.5v-24q0 -7 5 -11.5t12 -4.5h141v-142q0 -7 4.5 -11.5t11.5 -4.5h24q7 0 12 4.5t5 11.5v142h141
q7 0 11.5 4.5t4.5 11.5v24q0 7 -4.5 11.5z" />
    <glyph glyph-name="uniE028" unicode="&#xe028;" 
d="M1087 34q6 -45 23 -91q-102 -92 -156 -145q-24 -24 -58 -24q-35 0 -59 24q-110 108 -312 280q-138 117 -217.5 191t-141.5 154q-78 102 -115 201q-43 114 -43 240q0 98 38 189q36 87 104 155q68 66 154 104q91 38 190 38q98 0 189 -38q86 -38 154 -104q28 -28 59 -71
q28 41 58 71q68 67 155 104q91 38 189 38t189 -38q88 -38 154 -104q68 -68 104 -155q38 -88 38 -189q0 -126 -43 -240q-36 -96 -104 -186q-41 18 -85 27q73 91 111 188t38 211q0 109 -54 201.5t-146.5 146.5t-201.5 54t-201.5 -54t-146.5 -146.5t-54 -201.5q0 109 -54 201.5
t-146.5 146.5t-201.5 54q-110 0 -202.5 -54t-146.5 -146.5t-54 -201.5q0 -146 61 -264t155.5 -213.5t271.5 -245.5q206 -176 317 -284q83 83 191 177zM1629.5 347q70.5 -41 112 -111.5t41.5 -154.5q0 -83 -41.5 -153.5t-112 -112t-154.5 -41.5q-83 0 -153.5 41.5t-112 112
t-41.5 153.5q0 84 41.5 154.5t112 111.5t153.5 41q84 0 154.5 -41zM1619 116q0 7 -5 12l-142 142l-142 -142q-4 -4 -4 -12q0 -7 4 -11l18 -18q4 -4 11 -4q8 0 12 4l72 73v-251q0 -7 5 -11.5t12 -4.5h24q7 0 12 4.5t5 11.5v251l72 -73q5 -4 12 -4t11 4l18 18q5 5 5 11z" />
    <glyph glyph-name="uniE029" unicode="&#xe029;" 
d="M1781 1139q0 -43 -29 -72l-734 -739l-8 -6l-352 -186q-12 -4 -17 -4q-14 0 -25 11t-11 24q0 9 5 17l187 354q4 6 7 8l733 740q31 29 71 29q42 0 72 -30l73 -75q28 -28 28 -71zM1711 1139q0 13 -9 22l-73 74q-7 9 -21 9q-12 0 -20 -8l-730 -736l-132 -248l246 130l730 735
q9 9 9 22zM1517 697q0 -107 -37 -203q-33 -86 -97 -170q-53 -69 -120.5 -131.5t-183.5 -160.5q-24 -21 -25 -22q-161 -138 -239 -215q-21 -21 -50 -21t-49 21q-93 91 -265 237q-117 100 -183.5 162t-119.5 130q-63 80 -97 170q-37 96 -37 203q0 82 32 160q32 74 89 131
q54 55 130 88q78 32 160 32t160 -32q75 -32 131 -88q30 -32 49 -60q25 35 50 60q56 56 131 88q76 32 160 32q71 0 133 -22l-56 -57q-40 8 -77 8q-93 0 -171 -45.5t-124 -124t-46 -170.5q0 92 -45.5 170.5t-124 124t-170.5 45.5t-170.5 -45.5t-124 -124t-45.5 -170.5
q0 -123 51.5 -223t132 -181.5t228.5 -206.5q182 -156 268 -241q84 84 267 240q142 120 220 197t131 170t61 205l71 72q2 -22 2 -32z" />
    <glyph glyph-name="uniE030" unicode="&#xe030;" 
d="M1771.5 826.5q11.5 -11.5 11.5 -28.5v-315q0 -16 -11.5 -28t-28.5 -12h-176q-20 -66 -57 -136l22 -23l95 -94q11 -13 11 -29q0 -15 -11 -28l-223 -223q-13 -11 -28 -11q-16 0 -29 11l-92 93l-25 25q-69 -36 -136 -56v-178q0 -17 -11.5 -28.5t-28.5 -11.5h-315
q-16 0 -28 11.5t-12 28.5v178q-67 20 -136 56l-28 -29l-80 -79q-11 -11 -28 -11t-28 11l-223 223q-11 13 -11 28q0 17 11 28l86 87l21 21q-37 70 -57 136h-176q-16 0 -28 12t-12 28v315q0 17 12 28.5t28 11.5h175q20 72 56 139l-23 22l-82 83q-11 13 -11 28q0 17 11 28
l223 223q12 12 28 12q18 0 28 -12l85 -84l20 -20q63 34 139 58v172q0 17 12 28.5t28 11.5h315q17 0 28.5 -11.5t11.5 -28.5v-172q76 -24 139 -58l29 29l76 75q12 12 28 12q17 0 28 -12l223 -223q11 -10 11 -28q0 -17 -11 -28l-105 -105q36 -67 56 -139h175q17 0 28.5 -11.5z
M1506 758l-7 31q-23 93 -71 174l-17 26l74 73l47 48l-166 166l-120 -120l-27 17q-80 49 -175 72l-30 8v194h-235v-194l-30 -8q-95 -23 -175 -72l-27 -17l-120 120l-166 -166l54 -54l66 -67l-16 -26q-48 -81 -71 -174l-7 -31h-197v-235h198l7 -30q24 -93 72 -172l17 -27
l-123 -123l166 -166l124 124l26 -17q80 -47 172 -70l30 -8v-200h235v200l30 8q92 23 172 70l26 17l134 -134l166 166l-133 133l16 27q49 79 72 172l8 30h198v235h-197zM1080.5 958.5q84.5 -49.5 134 -134t49.5 -183.5q0 -100 -49.5 -184t-134 -133.5t-184.5 -49.5
q-99 0 -183.5 49.5t-134 133.5t-49.5 184q0 99 49.5 183.5t134 134t183.5 49.5q100 0 184.5 -49.5zM1040 392q66 39 105 105t39 144t-39 144t-105 104.5t-144 38.5t-144 -38.5t-104.5 -104.5t-38.5 -144t38.5 -144t104.5 -105t144 -39t144 39z" />
    <glyph glyph-name="uniE031" unicode="&#xe031;" 
d="M1542.5 1470.5q35.5 -35.5 35.5 -85.5v-1501q0 -50 -35.5 -85.5t-85.5 -35.5h-1145q-50 0 -85.5 35.5t-35.5 85.5v1501q0 50 35.5 85.5t85.5 35.5h1145q50 0 85.5 -35.5zM272 1367v-1384h1226v1384h-1226zM736 998q-2 6 -2 9q0 10 7 17l127 127q7 7 17 7t17 -7l127 -127
q6 -7 6 -17q0 -6 -1 -9q-6 -14 -22 -14h-254q-16 0 -22 14zM778 490q-49 29 -78 78t-29 107t29 107t78 78t107 29t107 -29t77.5 -78t28.5 -107t-28.5 -107t-77.5 -78t-107 -29t-107 29zM402 675q0 10 7 17l127 127q7 7 17 7q3 0 9 -2q14 -7 14 -22v-254q0 -15 -14 -22
q-6 -2 -10 -2q-10 0 -16 7l-127 127q-7 7 -7 17zM1193 548v254q0 15 15 22q6 2 9 2q8 0 17 -7l127 -127q7 -7 7 -17t-7 -17l-127 -127q-7 -7 -17 -7q-3 0 -9 2q-15 7 -15 22zM1034 352q1 -3 1 -9q0 -9 -6 -17l-127 -127q-9 -7 -17 -7t-17 7l-127 127q-7 7 -7 17q0 3 2 9
q6 14 22 14h254q16 0 22 -14zM913.5 -155.5q11.5 11.5 11.5 28.5q0 16 -11.5 28t-28.5 12q-16 0 -28 -12t-12 -28q0 -17 12 -28.5t28 -11.5q17 0 28.5 11.5z" />
    <glyph glyph-name="uniE032" unicode="&#xe032;" 
d="M1458.5 1501q34.5 -35 34.5 -84v-1548q0 -49 -34.5 -84t-83.5 -35h-980q-49 0 -84 34.5t-35 84.5v1548q0 50 35 84.5t84 34.5h980q49 0 83.5 -35zM1402.5 1445q-11.5 12 -27.5 12h-980q-16 0 -28 -11.5t-12 -28.5v-1548q0 -17 12 -28.5t28 -11.5h980q16 0 27.5 12
t11.5 28v1548q0 16 -11.5 28zM1110 1287q53 -53 81.5 -122.5t28.5 -145.5q0 -79 -29.5 -150t-84.5 -126q-12 -12 -28 -12h-385q-17 0 -28 12q-56 55 -86 126.5t-30 149.5q0 75 28.5 144.5t82.5 123.5q12 12 28 12h394q18 0 28 -12zM1065 1220h-360q-77 -86 -77 -200
q0 -120 82 -210h351q80 88 80 210q0 115 -76 200zM820 1129v-216h-79v216h79zM1027 1129v-216h-79v216h79zM1110 543q53 -53 81.5 -122.5t28.5 -145.5q0 -79 -29.5 -150t-84.5 -126q-12 -12 -28 -12h-385q-17 0 -28 12q-56 55 -86 126.5t-30 149.5q0 75 28.5 144.5
t82.5 123.5q12 12 28 12h394q18 0 28 -12zM1065 476h-360q-77 -86 -77 -200q0 -120 82 -210h351q80 88 80 210q0 115 -76 200zM820 385v-216h-79v216h79zM1027 385v-216h-79v216h79z" />
    <glyph glyph-name="uniE033" unicode="&#xe033;" 
d="M1746 1301.5q36 -36.5 36 -87.5v-1084q0 -51 -36 -87.5t-87 -36.5h-1526q-33 0 -61.5 17t-45.5 45.5t-17 61.5v1084q0 33 17 61.5t45.5 45.5t61.5 17h1526q51 0 87 -36.5zM91 1196v-983h1609v983h-1609zM1477 1033h-220v82h360v-360h-82v220l-249 -249l-58 58zM173 295
v360h82v-220l249 249l58 -58l-248 -249h219v-82h-360z" />
    <glyph glyph-name="uniE034" unicode="&#xe034;" 
d="M1754.5 1213.5q19.5 -45.5 19.5 -86.5v-1250q0 -49 -34.5 -83.5t-82.5 -34.5h-279h-3h-969h-2h-279q-48 0 -82.5 34.5t-34.5 83.5v1531q0 49 34.5 83t82.5 34h1241q39 0 86 -18.5t75 -46.5l179 -173q29 -28 48.5 -73.5zM1682.5 1183q-13.5 32 -31.5 48l-178 173
q-18 17 -50.5 30t-56.5 13h-155v-445q0 -49 -34 -83.5t-83 -34.5h-688q-48 0 -82.5 34.5t-34.5 83.5v445h-164q-16 0 -27.5 -11.5t-11.5 -27.5v-1531q0 -16 11.5 -28t27.5 -12h164v726q0 32 23 55t55 23h1008q32 0 55.5 -23t23.5 -55v-726h203q16 0 27.5 12t11.5 28v1250
q0 24 -13.5 56zM378.5 974.5q11.5 -11.5 27.5 -11.5h688q17 0 28 11.5t11 27.5v445h-445v-363h-199v363h-122v-445q0 -16 11.5 -27.5zM367 -163h1008v1v725h-1008v-725v-1z" />
    <glyph glyph-name="uniE035" unicode="&#xe035;" 
d="M1730.5 1276.5q35.5 -35.5 35.5 -85.5v-1062q0 -50 -35.5 -85.5t-85.5 -35.5h-1495q-50 0 -85.5 35.5t-35.5 85.5v1062q0 50 35.5 85.5t85.5 35.5h1495q50 0 85.5 -35.5zM109 1174v-963h1576v963h-1576zM319 895v80h513v-80h-513zM912 895v80h325v-80h-325zM1317 895v80
h160v-80h-160zM319 655v80h205v-80h-205zM1079 735v-80h-475v80h475zM1477 735v-80h-318v80h318zM319 416v80h336v-80h-336zM1052 496v-80h-317v80h317zM1477 496v-80h-345v80h345z" />
    <glyph glyph-name="uniE036" unicode="&#xe036;" 
d="M898 1255q-17 0 -49 -2v227q0 20 14.5 34.5t34.5 14.5t34.5 -14.5t14.5 -34.5v-227q-32 2 -49 2zM256 1235q0 20 14 34q15 15 35 15q21 0 34 -15l161 -160l-36 -34q-17 -17 -33 -36l-161 161q-14 16 -14 35zM1332 1075l-36 34l161 160q15 15 35 15q21 0 34 -15
q14 -13 14 -34t-14 -35l-161 -161q-10 13 -33 36zM1156.5 1087.5q118.5 -69.5 187.5 -188t69 -258.5t-69 -258t-187.5 -187.5t-258.5 -69.5t-258.5 69.5t-187.5 187.5t-69 258t69 258.5t187.5 188t258.5 69.5t258.5 -69.5zM738.5 1027q-76.5 -32 -135.5 -91
q-59 -58 -90.5 -134.5t-31.5 -160.5q0 -83 31.5 -159.5t90.5 -135.5t135.5 -90.5t159.5 -31.5v835q-83 0 -159.5 -32zM287 592h-228q-20 0 -34.5 14.5t-14.5 34.5q0 21 14.5 35t34.5 14h228q-2 -16 -2 -49q0 -32 2 -49zM1771.5 676q14.5 -14 14.5 -35q0 -20 -14.5 -34.5
t-34.5 -14.5h-227q1 17 1 49q0 33 -1 49h227q20 0 34.5 -14zM464 208l36 -34l-161 -160q-13 -15 -34 -15q-20 0 -35 15q-14 16 -14 35q0 20 14 34l161 161q16 -19 33 -36zM1540 49q0 -21 -14 -35q-15 -15 -35 -15t-34 15l-161 160l36 34q23 23 33 36l161 -161q14 -13 14 -34
zM898 28q17 0 49 2v-228q0 -20 -14.5 -34.5t-34.5 -14.5t-34.5 14.5t-14.5 34.5v228q32 -2 49 -2z" />
    <glyph glyph-name="uniE037" unicode="&#xe037;" 
d="M498 912q-5 10 -5 18q0 12 8 23l432 577l432 -577q8 -11 8 -23q0 -8 -5 -18q-9 -22 -34 -22h-210v-212q0 -24 -17.5 -41.5t-41.5 -17.5h-263q-24 0 -41.5 17.5t-17.5 41.5v212h-211q-25 0 -34 22zM782 968q17 0 28 -11t11 -28v-232h225v232q0 17 11.5 28t27.5 11h171
l-323 432l-118 -159l-205 -273h172zM1727 990.5q34 -34.5 34 -83.5v-1031q0 -49 -34 -83.5t-82 -34.5h-1453q-48 0 -82.5 34.5t-34.5 83.5v1031q0 49 34.5 83.5t82.5 34.5h266l-19 -26q-24 -30 -24 -70q0 -16 7 -39h-269v-935h1530v935h-239q7 23 7 39q0 39 -24 70l-19 26
h237q48 0 82 -34.5zM472 44l68 497h93l-26 -187h171l26 187h94l-69 -497h-93l30 226h-170l-31 -226h-93zM1329 433q34 -59 34 -130q0 -75 -36 -138t-91 -92q-56 -29 -152 -29h-155l68 497h79q113 0 165 -26q52 -25 88 -82zM1267 302q0 50 -19 82q-17 33 -53 52
q-34 18 -92 18h-24l-44 -323h31q72 0 103 12q44 16 71 58q27 41 27 101z" />
    <glyph glyph-name="uniE038" unicode="&#xe038;" 
d="M179 42q-74 97 -112.5 210t-38.5 231t38.5 231.5t112.5 209.5q10 13 28 13q13 0 21 -7q13 -10 13 -27q0 -12 -7 -22q-67 -87 -101.5 -189t-34.5 -209t34.5 -209.5t101.5 -189.5q7 -8 7 -21q0 -18 -13 -27q-10 -8 -21 -8q-17 0 -28 14zM1616 42q75 96 113.5 209.5
t38.5 231.5t-38.5 231.5t-113.5 209.5q-9 13 -27 13q-13 0 -21 -7q-13 -10 -13 -27q0 -12 7 -22q68 -87 102.5 -189t34.5 -209t-34.5 -209t-102.5 -190q-7 -8 -7 -21q0 -18 13 -27q10 -8 21 -8q18 0 27 14zM461 83q17 0 31 14l224 224l6 3h141v318h-141l-6 2l-224 224
q-13 14 -31 14q-21 0 -34 -19q-6 -10 -6 -24v-712q0 -14 6 -25q13 -19 34 -19zM1368 102q7 10 7 25v712q0 14 -7 24q-11 19 -33 19q-18 0 -31 -14l-224 -224l-6 -2h-142v-318h142l6 -3l224 -224q14 -14 31 -14q22 0 33 19zM304 187q-103 133 -103 301q0 170 103 301
q10 13 27 13q13 0 21 -7q13 -10 13 -27q0 -13 -7 -21q-88 -113 -88 -259q0 -144 88 -259q7 -8 7 -21q0 -18 -13 -27q-10 -8 -21 -8q-16 0 -27 14zM1492 187q103 133 103 301q0 170 -103 301q-10 13 -27 13q-13 0 -21 -7q-14 -11 -14 -27q0 -13 7 -21q89 -113 89 -259
q0 -145 -89 -259q-7 -8 -7 -21q0 -18 14 -27q10 -8 21 -8q16 0 27 14zM722 393q-32 0 -54 -22l-178 -178v580l178 -178q22 -22 54 -22h72v-180h-72zM1074 573q32 0 54 22l178 178v-580l-178 178q-22 22 -54 22h-72v180h72z" />
    <glyph glyph-name="uniE039" unicode="&#xe039;" 
d="M1557 1493.5q30 -29.5 30 -71.5v-1275q0 -42 -30 -72t-71 -30h-654q2 12 2 18v50h652q14 0 23.5 10t9.5 24v1275q0 14 -9.5 24t-23.5 10h-957q-14 0 -24 -10t-10 -24v-859q-18 8 -36 8h-31v851q0 42 29.5 71.5t71.5 29.5h957q41 0 71 -29.5zM1100 591q32 30 32 72
q0 34 -20 62q-21 25 -81 54q-119 55 -163 88q-42 32 -64 74q-21 40 -21 87q0 76 56 132q57 55 141 58v51h96v-57q47 -12 83 -32t81 -67l-98 -95q-67 69 -132 69q-39 0 -63 -21t-24 -47q0 -23 21 -46q21 -22 84 -48q115 -48 155 -80t64 -79q22 -45 22 -104q0 -58 -24 -106
q-24 -50 -61 -78t-108 -43v-135h-96v132q-68 8 -113 34q-64 34 -119 94l96 99q93 -99 180 -99q45 0 76 31zM762 208q5 -5 5 -12v-133q0 -7 -5.5 -12t-12.5 -5h-74q-9 -30 -24 -57l49 -49q5 -5 5 -13t-5 -12l-93 -94q-5 -5 -12 -5q-6 0 -13 5l-49 50q-29 -16 -57 -23v-75
q0 -7 -5 -12.5t-12 -5.5h-133q-7 0 -12 5t-5 13v75q-28 7 -57 23l-45 -45q-5 -5 -13 -5t-12 5l-94 94q-5 5 -5 12q0 5 5 12l45 45q-15 27 -24 57h-74q-7 0 -12 5t-5 12v133q0 7 5 12t12 5h74q7 29 23 58l-44 44q-5 7 -5 13q0 7 5 12l94 94q5 5 13 5t12 -5l43 -44
q30 16 59 24v73q0 7 5 12t12 5h133q7 0 12 -5t5 -12v-73q32 -10 58 -24l44 44q5 5 12 5q8 0 12 -5l94 -94q5 -4 5 -12t-5 -13l-44 -44q15 -28 24 -58h73q8 0 13 -5zM489.5 -38q44.5 26 70.5 70.5t26 97.5t-26 97t-70.5 70t-97.5 26t-97 -26t-70 -70t-26 -97t26 -97.5
t70 -70.5t97 -26t97.5 26z" />
    <glyph glyph-name="uniE040" unicode="&#xe040;" 
d="M1236 408l149 -451l66 -198l-550 407l-550 -405l66 198l151 450l-557 389h684l144 456l62 200l64 -200l144 -456h475l210 8l-172 -129zM1060 732l-158 502l-159 -502h-522l425 -297l-166 -497l422 311l420 -312l-164 497l426 298h-524z" />
    <glyph glyph-name="uniE041" unicode="&#xe041;" 
d="M1387 -39l65 -197l-546 405l-548 -403l216 644l-554 386h681l143 454l62 199l63 -199l143 -454h682l-556 -387zM1064 731l-158 499v-980l419 -310l-164 495l424 296h-521z" />
    <glyph glyph-name="uniE042" unicode="&#xe042;" 
d="M1457 -261l-559 415l-560 -413l67 202l154 457l-568 396h697l146 465l64 203l211 -668h698l-569 -397z" />
    <glyph glyph-name="uniE043" unicode="&#xe043;" 
d="M1740 832q29 -29 29 -69v-496q0 -40 -29 -69t-70 -29h-1552q-41 0 -70 29t-29 69v496q0 40 29 69t70 29h1552q41 0 70 -29zM1693.5 786.5q-9.5 9.5 -23.5 9.5h-1552q-13 0 -23 -9.5t-10 -23.5v-496q0 -13 9.5 -22.5t23.5 -9.5h1552q14 0 23.5 9.5t9.5 22.5v496
q0 14 -9.5 23.5zM213.5 726q12.5 -12 12.5 -29t-12.5 -29.5t-29.5 -12.5t-29 12.5t-12 29.5t12 29t29 12t29.5 -12zM1351 645.5q29 -28.5 29 -69.5v-122q0 -41 -29 -69.5t-70 -28.5h-750q-41 0 -70 29t-29 69v122q0 40 29 69t70 29h750q41 0 70 -28.5zM1304.5 599.5
q-9.5 9.5 -23.5 9.5h-750q-13 0 -23 -9.5t-10 -23.5v-122q0 -13 9.5 -22.5t23.5 -9.5h750q14 0 23.5 9.5t9.5 22.5v122q0 14 -9.5 23.5zM214 36.5q-32 27.5 -32 66.5h215q0 -39 -31.5 -66.5t-75.5 -27.5t-76 27.5zM1422.5 36.5q-31.5 27.5 -31.5 66.5h215q0 -39 -32 -66.5
t-76 -27.5t-75.5 27.5z" />
    <glyph glyph-name="uniE044" unicode="&#xe044;" 
d="M53 453l-32 43v370l32 43l31 -43v-370zM513 877l-43 -31h-217l-42 31l42 32h217zM1158 877l-43 -31h-243l-43 31l43 32h243zM1677 877l-43 -31h-244l-42 31l42 32h244zM544 453l-31 42v340l31 42l32 -42v-340zM797 877l32 -42v-339l-32 -42l-31 42v339zM1190 454l-32 42
v339l32 42l31 -42v-339zM1316 877l32 -42v-339l-32 -42l-32 42v339zM1708 454l-31 42v339l31 42l32 -42v-339zM639 711v-63h64v63h-64zM513 454l-43 -32h-185l-43 32l43 31h185zM53 30l-32 42v307l32 43l31 -43v-307zM242 30l-31 42v307l31 43l32 -43v-307zM1190 29l-32 42
v308l32 43l31 -43v-308zM1708 29l-31 42v308l31 43l32 -43v-308zM797 421l32 -42v-308l-32 -42l-31 42v308zM1316 421l32 -42v-308l-32 -42l-32 42v308zM639 257v-64h64v64h-64zM576 30l-42 -32h-186l-42 32l42 31h186zM829 29l43 32h243l43 -32l-43 -32h-243zM1348 29
l42 32h244l43 -32l-43 -32h-244z" />
    <glyph glyph-name="uniE045" unicode="&#xe045;" 
d="M1745.5 1123q31.5 -32 31.5 -76v-941q0 -44 -31.5 -75.5t-75.5 -31.5h-1052v179h1088v854h-1397v-321q-10 2 -32 2q-13 0 -39 -2v336q0 44 31.5 76t75.5 32h1325q44 0 75.5 -32zM618 250v710h1017v-710h-1017zM1149 592v18h-213v-76h123q-18 -37 -46 -55q-29 -17 -71 -17
q-63 0 -107 42q-44 44 -44 104q0 59 42 101q43 41 104 41q72 0 126 -57l56 56q-38 42 -79 59q-48 21 -103 21q-105 0 -171 -74q-55 -62 -55 -146q0 -61 30 -114q30 -52 81 -81q52 -29 117 -29q61 0 107 26q47 27 75 76t28 105zM1464 818l-107 -300l-107 300h-82l149 -422h78
l152 422h-83zM536.5 380.5q10.5 -10.5 10.5 -25.5v-386q0 -48 -34 -82t-82 -34h-306q-48 0 -82 34t-34 82v386q0 15 10.5 25.5t25.5 10.5h21v40q0 57 28.5 105.5t77 77t105.5 28.5q58 0 106.5 -28.5t77 -77t28.5 -105.5v-40h22q15 0 25.5 -10.5zM417 391v40q0 38 -19 70
t-51 51t-70 19t-70 -19t-51 -51t-19 -70v-40h280zM81 320v-351q0 -18 13 -31.5t31 -13.5h306q19 0 32 13.5t13 31.5v351h-395zM213 149q0 28 20.5 48t48.5 20t48 -20t20 -48q0 -34 -28 -55l22 -72q1 -2 1 -6q0 -5 -3 -10q-6 -7 -15 -7h-91q-9 0 -15 7q-5 7 -2 16l22 72
q-28 21 -28 55z" />
    <glyph glyph-name="uniE046" unicode="&#xe046;" 
d="M1744.5 1127.5q31.5 -31.5 31.5 -75.5v-939q0 -44 -31.5 -75.5t-75.5 -31.5h-1050v179h1085v852h-1393v-320q-22 2 -33 2q-20 0 -39 -3v336q0 44 31.5 75.5t75.5 31.5h1323q44 0 75.5 -31.5zM619 256v710h1014v-710h-1014zM1163 589q41 15 60 43q20 26 20 69q0 39 -18 68
q-18 30 -47 42q-30 12 -100 12h-85v-421h80v178h8l95 -178h87zM1166 702q0 -24 -15 -33q-13 -10 -52 -10h-26v86h22q33 0 44 -4q13 -5 20 -15q7 -12 7 -24zM537.5 386.5q10.5 -10.5 10.5 -25.5v-385q0 -48 -34 -81.5t-82 -33.5h-305q-48 0 -82 33.5t-34 81.5v385
q0 15 10.5 25.5t25.5 10.5h20v40q0 57 28.5 105.5t77 77t105.5 28.5t105.5 -28.5t77 -77t28.5 -105.5v-40h23q15 0 25.5 -10.5zM418 397v40q0 38 -18.5 70t-51 51t-70.5 19t-70 -19t-51 -51t-19 -70v-40h280zM82 326v-350q0 -18 13 -31t32 -13h305q18 0 31.5 13t13.5 31v350
h-395zM215 156q0 28 20 48t48 20t48 -20t20 -48q0 -35 -27 -55l22 -73v-4q0 -6 -3 -11q-4 -7 -14 -7h-92q-10 0 -14 7q-6 6 -3 15l22 73q-27 20 -27 55z" />
    <glyph glyph-name="uniE047" unicode="&#xe047;" 
d="M1737.5 1031q28.5 -29 28.5 -69v-856q0 -40 -28.5 -69t-68.5 -29h-858l-28 29q37 27 62 52q26 26 26 61q0 11 -3 21h833v777h-1271v-549h-15q-24 0 -50 -3v566q0 41 29 69.5t69 28.5h1206q40 0 68.5 -29zM587 369q-49 16 -92 23v491h1141v-647h-819q-48 39 -96 69
q-63 39 -134 64zM714 368l42 243l81 -243h64l82 243l41 -243h71l-65 384h-71l-90 -268l-89 268h-71l-67 -384h72zM1198 368l31 79h157l30 -79h76l-148 384h-74l-148 -384h76zM1256 519l52 132l51 -132h-103zM687 50q-63 -38 -122 -58q-78 -26 -150 -26q-73 0 -151 26
q-59 20 -122 58q-72 44 -113 85q-6 8 -6 15t6 15q1 1 28 25.5t85 58.5q58 36 122 58q77 27 151 27t150 -27q64 -22 122 -58q58 -34 85 -58.5t28 -25.5q6 -6 6 -15t-6 -15q-41 -41 -113 -85zM711 18l71 -73q-18 -12 -27 -17l-7 -5l-72 75l31 17zM123 15l32 -19l-71 -74l-9 6
l-25 15l70 74zM619 -30l49 -88q-18 -9 -36 -15l-50 89q13 4 37 14zM249 -45l-49 -89q-18 6 -36 15l48 88q32 -12 37 -14zM342 -69l-25 -98q-12 2 -38 8l25 98q28 -6 38 -8zM527 -61l26 -98l-38 -8l-25 98zM435 -74v-102h-20h-18v102q6 -1 18 -1q13 0 20 1z" />
    <glyph glyph-name="uniE048" unicode="&#xe048;" 
d="M1772 1240.5q10 -9.5 10 -23.5v-214q0 -14 -10 -24t-24 -10h-1444q-14 0 -24 10t-10 24v214q0 14 10 23.5t24 9.5h1444q14 0 24 -9.5zM338 1183v-146h1376v146h-1376zM1772 823q10 -10 10 -24v-213q0 -14 -10 -24t-24 -10h-1192q-23 37 -58 68h1216v146h-1376v-75
q-24 2 -36 2t-32 -2v108q0 14 10 24t24 10h1444q14 0 24 -10zM588 334q10 -10 10 -23v-431q0 -33 -17 -61.5t-45.5 -45.5t-61.5 -17h-341q-51 0 -87 36.5t-36 87.5v431q0 14 10 23.5t23 9.5h29v51q0 62 31 115t84 84t115 31t115.5 -31t84.5 -84t31 -115v-51h31q14 0 24 -10z
M465 344v51q0 44 -22 81t-59.5 59t-81.5 22t-81 -22t-59 -59t-22 -81v-51h325zM1772 406q10 -10 10 -24v-213q0 -14 -10 -24t-24 -10h-1083v68h1049v145h-1056q-15 40 -58 58v10h1148q14 0 24 -10zM77 277v-397q0 -23 16.5 -39.5t39.5 -16.5h341q23 0 39.5 16.5t16.5 39.5
v397h-453zM229 80q0 31 21.5 52.5t51.5 21.5q31 0 52.5 -21.5t21.5 -52.5q0 -37 -31 -59l25 -83v-4q0 -7 -3 -11q-4 -7 -13 -7h-103q-9 0 -13 7q-5 5 -3 15l25 83q-31 22 -31 59z" />
    <glyph glyph-name="uniE049" unicode="&#xe049;" 
d="M1773 595q0 -27 -24 -40l-178 -96q-22 -11 -34 -11h-131v31q0 25 -17.5 42.5t-42.5 17.5t-42.5 -17.5t-17.5 -42.5v-31h-62v31q0 12 -8.5 20.5t-20.5 8.5t-20.5 -8.5t-8.5 -20.5v-31h-62v31q0 41 -28.5 69.5t-69.5 28.5q-40 0 -68.5 -28.5t-28.5 -69.5v-31h-176
q-26 -49 -67 -90q-55 -55 -126 -84.5t-148 -29.5q-78 0 -148.5 29.5t-126.5 84.5q-55 55 -84 126t-29 148q0 78 29 148.5t84 126.5q56 55 126.5 84t148.5 29q77 0 148 -29t126 -84q38 -38 66 -88h872q14 0 28.5 -7.5t21.5 -19.5l112 -172q7 -11 7 -25zM759 757l-44 -3
l-20 -1q-14 31 -28 53q-44 70 -117 111t-158 41q-89 0 -163.5 -44t-118.5 -118.5t-44 -163.5q0 -88 44 -163t119 -119t163 -44q86 0 159.5 42t116.5 113q16 24 26 50h119h37q11 55 55 91.5t101 36.5q45 0 82.5 -22.5t57.5 -60.5q22 14 49 14q29 0 54 -17q37 49 97 49
q42 0 74.5 -26t43.5 -66h70l8 4l162 87l-101 156h-844zM410.5 563.5q-18.5 -31.5 -50.5 -50t-69 -18.5t-68.5 18.5t-50 50t-18.5 68.5t18.5 69t50 50.5t68.5 18.5t69 -18.5t50.5 -50.5t18.5 -69t-18.5 -68.5zM345 686q-22 22 -54 22q-31 0 -53 -22.5t-22 -53.5t22 -53
t53 -22t53.5 22t22.5 53q0 32 -22 54z" />
    <glyph glyph-name="uniE050" unicode="&#xe050;" 
d="M668 295.5q-74 43.5 -117.5 117.5t-43.5 162v633q0 88 43.5 161.5t117.5 117t162 43.5q87 0 161 -43.5t117.5 -117.5t43.5 -161v-633q0 -88 -43.5 -162t-117.5 -117.5t-161 -43.5q-88 0 -162 43.5zM624 456q32 -55 87 -87t119 -32t118.5 32t86.5 87t32 119v633
q0 64 -32 118.5t-86.5 86.5t-118.5 32t-119 -32t-87 -86.5t-32 -118.5v-633q0 -64 32 -119zM1322 575q0 -126 -59.5 -234.5t-162.5 -177t-227 -79.5v-251h236q18 0 30.5 -12.5t12.5 -30.5q0 -17 -12.5 -29.5t-30.5 -12.5h-559q-18 0 -30.5 12.5t-12.5 29.5q0 18 12.5 30.5
t30.5 12.5h238v251q-124 10 -227.5 78.5t-163.5 177t-60 235.5v246h85v-246q0 -111 55 -204.5t148.5 -148.5t204.5 -55q110 0 203.5 55t148.5 148.5t55 204.5v246h85v-246z" />
    <glyph glyph-name="uniE051" unicode="&#xe051;" 
d="M1587 1105q77 -228 77 -467q0 -238 -77 -466t-227 -422l-7 -7l-65 83q135 178 204 386.5t69 425.5q0 218 -69 426.5t-204 386.5l65 83l7 -7q150 -194 227 -422zM863 1357v-1438q0 -52 -41 -69q-9 -4 -23 -4q-30 0 -54 24l-463 463h-284v610h284l463 463q24 24 54 24
q14 0 23 -4q41 -17 41 -69zM325 841h-224v-405h224l435 -436v1276zM1263 947q50 -151 50 -309q0 -157 -50 -308.5t-147 -281.5l-66 85q79 113 119.5 242t40.5 263q0 135 -40.5 264t-119.5 242l66 84q97 -130 147 -281z" />
    <glyph glyph-name="uniE052" unicode="&#xe052;" 
d="M400 1265l-53 53q90 69 195 114q163 68 340 68t340 -68q158 -67 278 -187q121 -123 187 -278q69 -166 69 -340t-69 -340q-45 -105 -114 -195l-53 52q60 80 99 172q63 147 63 311t-63 311q-59 141 -171 255q-114 112 -255 171q-147 63 -311 63t-311 -63q-93 -39 -171 -99z
M1701 -140l-52 -52l-1587 1587l52 52zM1337 628q0 156 -49.5 305t-145.5 276l46 59l5 -5q107 -138 162 -301.5t55 -333.5q0 -164 -51 -322l-59 59q37 127 37 263zM764 1084l-92 -91l-52 52l133 132q17 18 38 18q5 0 17 -4q29 -11 29 -49v-314l-73 73v183zM1364 -11l53 -53
q-90 -69 -195 -114q-166 -69 -340 -69t-340 69q-155 66 -278 187q-120 120 -187 278q-68 163 -68 340t68 340q45 105 114 195l53 -53q-59 -76 -99 -171q-63 -147 -63 -311t63 -311q59 -141 171 -255q114 -112 255 -171q147 -63 311 -63t311 63q93 39 171 99zM1085 629
q0 95 -29 187.5t-85 172.5l47 61q70 -93 105.5 -202t35.5 -223q0 -54 -9 -110l-67 66q2 32 2 48zM292 483h160l312 -311v418l73 -74v-403q0 -36 -29 -49q-7 -3 -17 -3q-21 0 -38 17l-331 331h-203v437h203l42 43l52 -52l-64 -64h-160v-290zM1018 206l-47 60q27 40 44 72
l54 -54q-23 -40 -51 -78zM1188 -13l-46 60q38 51 65 99l54 -54q-34 -55 -68 -100z" />
    <glyph glyph-name="uniE053" unicode="&#xe053;" 
d="M1405.5 1512.5q23.5 -23.5 23.5 -56.5v-1647q0 -21 -8 -33t-22 -12q-16 0 -33 14l-504 396l-12 9l-11 -8l-507 -397q-17 -14 -33 -14q-14 0 -22 12t-8 33v1647q0 33 23.5 56.5t56.5 23.5h1000q33 0 56.5 -23.5zM349 1455v-1562l501 393l499 -392v1562zM1152 781
q12 -11 12 -29q0 -22 -18 -34l-145 -101l56 -170q2 -8 2 -13q0 -13 -8 -24q-11 -17 -33 -17q-13 0 -24 8l-144 107l-144 -106q-9 -8 -25 -8q-21 0 -33 17q-7 10 -7 23q0 6 2 14l57 169l-145 101q-18 12 -18 34q0 18 12 29t29 11h179l54 172q10 29 39 29q14 0 24.5 -7.5
t14.5 -20.5l54 -173h180q17 0 29 -11z" />
    <glyph glyph-name="uniE054" unicode="&#xe054;" 
d="M1771 1175q9 -9 9 -22v-198q0 -13 -9 -22t-22 -9h-1337q-13 0 -22.5 9t-9.5 22v198q0 13 9.5 22t22.5 9h1337q13 0 22 -9zM443 1122v-136h1274v136h-1274zM1771 789q9 -9 9 -22v-198q0 -13 -9 -22.5t-22 -9.5h-1023q-40 37 -89 63h1080v135h-1274v-79l-31 1l-32 -1v111
q0 13 9.5 22t22.5 9h1337q13 0 22 -9zM569 563q75 -31 134 -89q58 -59 89 -134t31 -157t-31 -157.5t-89 -133.5q-59 -59 -134 -90t-157 -31t-157 31t-134 90q-58 57 -89 132.5t-31 158.5t31 158t89 133q59 58 134 89t157 31t157 -31zM733.5 49q26.5 64 26.5 134t-26.5 133.5
t-75.5 112.5t-112.5 75.5t-133.5 26.5t-134 -26.5t-113 -75.5q-49 -50 -75.5 -113.5t-26.5 -132.5t26.5 -133t75.5 -114q49 -49 113 -75.5t134 -26.5t133.5 26.5t112.5 75.5t75.5 113zM601 205q9 -9 9 -22t-9 -22.5t-22 -9.5h-199v231q0 13 9 22t22 9t22.5 -9t9.5 -22v-168
h136q13 0 22 -9zM1771 402.5q9 -9.5 9 -22.5v-197q0 -13 -9 -22.5t-22 -9.5h-864q1 11 1 32t-1 31h832v135h-861q-11 30 -29 63h922q13 0 22 -9.5z" />
    <glyph glyph-name="uniE055" unicode="&#xe055;" 
d="M1768.5 1036.5q9.5 -9.5 9.5 -22.5v-206q0 -13 -9.5 -22.5t-23.5 -9.5h-1389q-14 0 -23.5 9.5t-9.5 22.5v206q0 13 9.5 22.5t23.5 9.5h1389q14 0 23.5 -9.5zM388 981v-140h1325v140h-1325zM1768.5 635.5q9.5 -9.5 9.5 -22.5v-206q0 -13 -9.5 -22.5t-23.5 -9.5h-1077
l-21 23q-27 26 -50 42h1116v140h-1325v-29q-17 5 -32 5t-33 -5v62q0 13 9.5 22.5t23.5 9.5h1389q14 0 23.5 -9.5zM324 159q-13 13 -13 32v255q0 18 13 31t32 13q18 0 31 -13t13 -31v-255q0 -19 -13 -32t-31 -13q-19 0 -32 13zM675 241q27 -63 27 -134q0 -70 -27 -135
q-27 -61 -74 -110q-48 -49 -110 -74q-65 -27 -135 -27t-135 27q-61 25 -110 74q-48 48 -74 110q-27 65 -27 135q0 71 27 134q26 63 74 110q48 48 110 75q30 12 54 17v-55q-73 -22 -126 -75q-86 -86 -86 -206q0 -58 22.5 -112t63.5 -95t95 -63.5t112 -22.5q119 0 207 86
q41 41 63 94.5t22 112.5q0 121 -85 206q-56 56 -127 75v55q25 -5 55 -17q62 -27 110 -75q47 -47 74 -110zM1768.5 234.5q9.5 -9.5 9.5 -23.5v-205q0 -14 -9.5 -23.5t-23.5 -9.5h-1000q13 39 16 66h952v140h-952q-6 31 -17 65h1001q14 0 23.5 -9.5z" />
    <glyph glyph-name="uniE056" unicode="&#xe056;" 
d="M948.5 821q-27.5 28 -27.5 67v542q0 39 27.5 67t67.5 28q39 0 67 -28t28 -67v-542q0 -39 -28 -67t-67 -28q-40 0 -67.5 28zM403 813q-63 -13 -120 -39q9 113 55 222q57 133 158 233q100 101 233 158q61 26 116 38v-118q-156 -45 -269 -158q-141 -142 -173 -336zM1752 709
q0 -149 -58 -286q-56 -134 -158 -234q-100 -102 -234 -158q-132 -56 -280 -58q30 55 48 117q109 9 208 55t178 124q88 89 135 202.5t47 237.5t-47 237.5t-135 202.5q-115 115 -269 158v118q58 -13 115 -38q134 -56 234 -158q101 -100 158 -233q58 -139 58 -287zM709.5 710
q91.5 -38 161.5 -108q71 -71 108.5 -161.5t37.5 -190.5t-37.5 -190.5t-108.5 -161.5q-70 -70 -161.5 -108t-191.5 -38t-190.5 37.5t-161.5 108.5t-108.5 161.5t-37.5 190.5t37.5 190.5t108.5 161.5t161.5 108.5t190.5 37.5t191.5 -38zM909 88q32 77 32 162t-32 162t-92 137
q-60 59 -137 91t-162 32q-84 0 -161 -32t-137 -91q-60 -60 -92 -137t-32 -162t32 -162t92 -136q60 -60 137 -92t161 -32q85 0 162 32t137 92q60 59 92 136zM747 277q11 -11 11 -27t-11 -27t-27 -11h-240v279q0 16 11 27t27 11t27 -11t11 -27v-203h164q16 0 27 -11z" />
    <glyph glyph-name="uniE057" unicode="&#xe057;" 
d="M809.5 725q-31.5 32 -31.5 77v622q0 45 31.5 77t77.5 32q45 0 77 -32t32 -77v-622q0 -45 -32 -77t-77 -32q-46 0 -77.5 32zM1732 596q0 -171 -67 -329q-64 -153 -181 -268q-115 -117 -268 -181q-155 -67 -329 -67t-329 67q-151 63 -269 181q-115 115 -181 268
q-66 156 -66 329t66 329q64 151 181 269q118 117 269 181q62 26 132 43v-135q-177 -51 -308 -182q-101 -101 -155 -231.5t-54 -273.5t54 -273.5t155 -231.5t231.5 -155t273.5 -54t273.5 54t231.5 155t155 231.5t54 273.5t-54 273.5t-155 231.5q-134 132 -309 182v135
q73 -18 133 -43q153 -66 268 -181q118 -118 181 -269q67 -158 67 -329z" />
    <glyph glyph-name="uniE058" unicode="&#xe058;" 
d="M1268 1496q24 -24 24 -59v-988q-16 2 -23 2q-32 0 -60 -14v1000q0 -1 -0.5 -0.5l-0.5 0.5h-657v-276q0 -34 -24 -58.5t-59 -24.5h-376v-1059h709q0 -46 23 -84h-732q-34 0 -59 24.5t-25 59.5v1059q0 24 11 49t29 43l1 1h1l4 5q1 0 3 2l394 308l4 2q19 14 46 23t50 9h658
q35 0 59 -24zM468 1393l-297 -232h297v232zM384 946q-44 0 -81 -20.5t-58 -56.5t-21 -80q0 -43 21 -78.5t57 -55.5t79 -20t81 19v72q-34 -39 -80 -39q-44 0 -72.5 29.5t-28.5 74.5q0 41 28 72t69 31q50 0 84 -40v73q-32 19 -78 19zM643 946q-36 0 -61 -24.5t-25 -60.5
q0 -27 13.5 -42.5t42.5 -31.5l55 -29q21 -15 21 -32q0 -18 -13 -29.5t-31 -11.5q-33 0 -54 37l-48 -21q12 -31 40.5 -48.5t61.5 -17.5q41 0 70.5 28t29.5 69q0 31 -18 49.5t-49 33.5q-6 3 -27 12t-31 19t-10 22t9 20t21 8q26 0 38 -25l45 24q-24 51 -80 51zM782 938
l147 -303l148 303h-64l-84 -183l-84 183h-63zM1308 -232q-19 -12 -39 -12q-17 0 -28 7q-32 17 -32 59v113h-241q-34 0 -59 24.5t-25 59.5v87q0 35 25 59.5t59 24.5h241l-1 111q0 42 33 59q13 7 28 7q20 0 39 -12l453 -293zM1292 266v-118q0 -16 -12 -30q-14 -12 -30 -12
h-282v-87h282q17 0 29.5 -12.5t12.5 -29.5v-120l316 205z" />
    <glyph glyph-name="uniE059" unicode="&#xe059;" 
d="M1756 1203.5q18 -21.5 18 -60.5v-1012q0 -27 -11 -52l3 -4l-9 -7q-17 -27 -45 -43t-60 -16h-1515q-33 0 -61 16t-44 43l-9 7l3 4q-12 27 -12 52v1012q0 39 18 60.5t45 24.5h1634q27 -3 45 -24.5zM214 1147l643 -526q17 -12 38 -12q22 0 37 12l642 526h-1360zM564 756
l-468 382v-971zM1693 1138l-468 -382l468 -589v971zM139 90h1510l-487 614l-178 -146q-39 -30 -89 -30q-51 0 -89 30l-179 146z" />
    <glyph glyph-name="uniE060" unicode="&#xe060;" 
d="M1756 920v-1131q0 -16 -11.5 -27.5t-27.5 -11.5h-1616q-16 0 -27.5 11.5t-11.5 27.5v1131q0 21 16 32l809 566q10 7 22 7q13 0 23 -7l808 -566q16 -11 16 -32zM750 467l132 126q11 11 27 11q17 0 27 -11l132 -126l583 452l-742 519l-742 -519zM140 -119l553 531l-553 428
v-959zM1678 840l-553 -428l553 -531v959zM1620 -171l-711 682l-711 -682h1422z" />
    <glyph glyph-name="uniE061" unicode="&#xe061;" 
d="M1085 592l277 277l145 -146q22 -20 47 -20q22 0 38.5 14.5t21.5 37.5l163 767l-766 -164q-24 -6 -38.5 -22t-14.5 -38q0 -26 21 -47l144 -144l-276 -276q-24 -24 -24 -56t24 -56l126 -127q25 -23 56 -23t56 23zM1572 -125q89 89 104 231q3 25 -17 40l-366 277
q-12 9 -27 9q-8 0 -12 -1q-91 -30 -148 -92q-19 -21 -39 -59q-16 -30 -30 -47q-205 114 -331 240q-109 109 -228 319q19 10 43 16q28 9 44.5 16.5t32.5 22.5q43 38 65 82.5t27 65.5q2 8 2 12q0 15 -9 27l-277 365q-15 20 -40 18q-144 -15 -231 -104q-86 -84 -104 -225
q-4 -40 -4 -63q0 -101 35 -220q47 -155 147 -313.5t242 -299.5q199 -199 423 -312q222 -112 409 -112q182 0 289 107zM1076 1281l586 125l-125 -586l-175 175l-333 -332l-112 112l332 332zM538 912q-11 -9 -43 -18q-36 -12 -59 -23t-47 -36q-13 -12 -13 -31q0 -11 5 -21
q10 -21 48.5 -86t96 -146t117.5 -141q71 -71 154.5 -130.5t117.5 -79.5t112 -63q8 -4 20 -4q19 0 32 13q39 39 67 93q15 28 26 40q33 36 86 59l326 -247q-17 -95 -75 -153q-81 -81 -226 -81q-166 0 -369 103q-212 107 -400 295q-133 133 -227.5 282t-138.5 294
q-31 102 -31 193q0 27 3 54q14 108 78 172q59 59 153 75l246 -326q-21 -52 -59 -87z" />
    <glyph glyph-name="uniE062" unicode="&#xe062;" 
d="M1633.5 776.5q14.5 15.5 14.5 36.5q0 25 -20 47l-141 141l271 271q23 23 23 55t-23 55l-124 124q-23 23 -55 23t-55 -23l-271 -271l-143 143q-20 20 -46 20q-21 0 -37.5 -14.5t-20.5 -36.5l-161 -753l752 162q22 5 36.5 20.5zM1579 1437l110 -110l-326 -326l170 -170
l-574 -123l122 575l172 -172zM1519 -144q87 87 102 227q3 24 -17 39l-359 272q-9 8 -26 8q-8 0 -12 -1q-89 -30 -145 -90q-18 -20 -38 -58q-14 -27 -29 -46q-199 109 -326 236q-104 105 -223 312q21 11 43 16q49 14 75 38q60 54 90 145q2 8 2 12q0 14 -9 26l-272 359
q-14 19 -39 17q-140 -15 -227 -102q-84 -84 -101 -220q-4 -40 -4 -62q0 -99 35 -216q45 -152 143.5 -307t237.5 -295q193 -193 414 -305q217 -110 402 -110q180 0 283 105zM505 873q-11 -10 -42 -18q-66 -20 -104 -57q-13 -13 -13 -31q0 -11 5 -21q136 -245 257 -365
q69 -69 151.5 -128t116 -78.5t109.5 -61.5q8 -4 20 -4q18 0 30 12q35 34 66 91q13 26 26 40q35 38 85 58l319 -242q-17 -94 -73 -150q-79 -79 -222 -79q-165 0 -362 100q-206 103 -392 289q-131 131 -224 277t-136 288q-30 102 -30 190q0 27 3 52q14 107 76 169
q57 57 150 74l242 -320q-23 -53 -58 -85z" />
    <glyph glyph-name="uniE063" unicode="&#xe063;" 
d="M1088 -215.5q30 29.5 30 71.5v595h320q52 0 72 39q9 15 9 33q0 25 -15 49l-620 954l-617 -955q-15 -22 -15 -47q0 -17 9 -34q20 -39 72 -39h316v-595q0 -42 30 -71.5t72 -29.5h265q42 0 72 29.5zM375 552l510 787l510 -787h-379v-696h-265v696h-376z" />
    <glyph glyph-name="uniE064" unicode="&#xe064;" 
d="M1491.5 -60.5q32.5 32.5 32.5 78.5v1396q0 46 -32.5 78.5t-78.5 32.5h-1106q-46 0 -78.5 -32.5t-32.5 -78.5v-1396q0 -46 32.5 -78.5t78.5 -32.5h1106q46 0 78.5 32.5zM1439 1440q11 -11 11 -26v-1396q0 -15 -11 -26t-26 -11h-1106q-15 0 -26 11t-11 26v1396q0 15 11 26
t26 11h1106q15 0 26 -11zM1651.5 1327.5q20.5 -28.5 21.5 -63.5v-1249q0 -70 -35 -130t-95 -95t-130 -35h-959q-36 1 -64 21.5t-39 53.5h1062q50 0 93 25t68 67.5t25 92.5v1352q32 -11 52.5 -39.5zM43 1289.5q33 32.5 79 32.5v-341q-46 0 -79 33t-33 79v117q0 47 33 79.5z
M1307 294.5q8 -33.5 8 -46.5h-914q0 13 8 46.5t31 69.5q12 19 51 39t106 47q72 30 107 48.5t35 35.5q0 21 -5 35.5t-17 35.5q-16 31 -26 58.5t-17 73.5q-2 2 -10.5 8t-15 23.5t-6.5 47.5q0 59 22 61q-13 12 -19.5 24.5t-6.5 35.5q0 27 6.5 53t15.5 40q15 23 36 23
q12 0 12 14q0 7 -1.5 13t-1.5 10q0 6 4 13t11 9q58 19 136 31q53 8 88 8q80 0 110 -40q21 -28 21 -98q0 -91 -34 -136q27 -3 27 -63q0 -34 -7.5 -49t-15 -20.5t-9.5 -7.5q-7 -51 -17.5 -80.5t-27.5 -60.5q-11 -21 -15.5 -33t-4.5 -29q0 -8 11 -19q23 -20 133 -65
q69 -27 109 -47t52 -39q23 -36 31 -69.5zM43 838.5q33 32.5 79 32.5v-341q-46 0 -79 32.5t-33 78.5v118q0 47 33 79.5zM43 385.5q33 32.5 79 32.5v-340q-47 0 -79.5 32.5t-32.5 78.5v118q0 46 33 78.5z" />
    <glyph glyph-name="uniE065" unicode="&#xe065;" 
d="M994 375.5q-51 -82.5 -64 -179.5h-817q0 19 11.5 69t45.5 102q19 28 74.5 56.5t159.5 72.5q105 43 156.5 70.5t51.5 51.5q0 31 -8 53.5t-25 52.5q-23 44 -38 85t-26 109q-3 3 -15.5 12t-22 34t-9.5 67q0 91 33 93q-19 18 -29 36.5t-10 53.5q0 39 10 77.5t23 58.5
q24 35 53 35q18 0 18 21q0 7 -2 17.5t-2 15.5q0 9 5.5 19.5t15.5 13.5q1 0 26.5 7.5t76 19t98.5 19.5q74 12 129 12q119 0 163 -60q32 -43 32 -144q0 -58 -13 -113t-38 -89q40 -3 40 -94q0 -48 -11 -69.5t-22.5 -31t-13.5 -11.5q-10 -75 -26 -119.5t-40 -87.5
q-16 -29 -23 -48t-7 -45q0 -14 15 -27q32 -28 155 -79q-79 -54 -130 -136.5zM1571.5 473q88.5 -52 140.5 -140.5t52 -193.5q0 -104 -52 -192.5t-140.5 -140.5t-193.5 -52t-193.5 52t-140.5 140.5t-52 192.5q0 105 52 193.5t140.5 140.5t193.5 52t193.5 -52zM1465 146
l100 100l-93 93l-100 -100l-100 100l-93 -93l100 -100l-100 -101l93 -93l100 100l100 -100l93 93z" />
    <glyph glyph-name="uniE066" unicode="&#xe066;" 
d="M952.5 368.5q-51.5 -82.5 -63.5 -179.5h-820q0 19 11.5 69t45.5 102q19 28 77 57.5t158 71.5q108 46 158 72.5t50 50.5q0 31 -7.5 53t-24.5 54q-23 42 -38.5 83.5t-25.5 110.5q-3 3 -15.5 12t-22 34.5t-9.5 68.5q0 90 32 92q-20 19 -29.5 37.5t-9.5 55.5q0 39 10.5 76.5
t23.5 57.5q21 34 52 34q18 0 18 21q0 7 -2 17.5t-2 16.5q0 9 6 19.5t16 13.5q1 0 52 15.5t149 30.5q73 12 130 12q119 0 164 -60q31 -41 31 -143q0 -59 -13 -114.5t-38 -89.5q41 -3 41 -94q0 -49 -11 -70.5t-22.5 -31t-13.5 -11.5q-11 -76 -27 -120.5t-40 -87.5
q-16 -29 -23 -48t-7 -45q0 -13 15 -27q31 -27 156 -79q-80 -55 -131.5 -137.5zM1532.5 466q89.5 -52 141.5 -141t52 -194t-52.5 -194t-141.5 -141t-194 -52t-194 52t-141 141t-52 194t52 194t141 141t194 52t194.5 -52zM1518 91.5q17 16.5 17 39.5t-17 40t-40 17h-279
q-23 0 -39.5 -17t-16.5 -40t16.5 -39.5t39.5 -16.5h279q23 0 40 16.5z" />
    <glyph glyph-name="uniE067" unicode="&#xe067;" 
d="M957 375.5q-51 -82.5 -64 -180.5h-822q0 19 12 69t46 102q19 29 77.5 58.5t159.5 71.5q107 45 157 72t50 51q0 31 -8 53.5t-25 53.5q-23 44 -38 85t-26 109q-3 3 -16 12.5t-22 34.5t-9 68q0 91 32 93q-20 20 -29.5 38.5t-9.5 55.5q0 38 10.5 75.5t23.5 57.5q24 35 53 35
q18 0 18 22q0 7 -2 17.5t-2 15.5q0 9 5.5 19t15.5 13q1 0 52.5 16t149.5 31q74 12 130 12q120 0 164 -60q32 -43 32 -145q0 -59 -13 -114t-38 -89q40 -3 40 -95q0 -49 -11 -70.5t-22.5 -31t-13.5 -11.5q-11 -75 -27 -119t-40 -89q-16 -29 -23 -48t-7 -45q0 -12 16 -28
q34 -29 155 -78q-80 -55 -131 -137.5zM1538 472.5q89 -52.5 141 -141.5t52 -194t-52 -194t-141 -141t-194 -52t-194 52t-141.5 141t-52.5 194t52.5 194t141.5 141.5t194 52.5t194 -52.5z" />
    <glyph glyph-name="uniE068" unicode="&#xe068;" 
d="M891 18l3 -8h-639q-43 0 -73.5 30.5t-30.5 73.5v1305q0 43 30.5 73.5t73.5 30.5h1034q43 0 73.5 -30.5t30.5 -73.5l-1 -789h-5q-3 1 -8 1h-2q-24 2 -34 2l-12 -1h-3h-4v787q0 14 -10.5 24.5t-24.5 10.5h-1034q-14 0 -24.5 -10.5t-10.5 -24.5v-1305q0 -14 10.5 -24.5
t24.5 -10.5l621 -1q1 -2 1 -5q1 -2 1 -6q1 -2 1 -5q2 -4 2 -8l1 -4l2 -8l1 -3l2 -7l1 -4l2 -8zM940 407l-3 -3q-1 -4 -4 -7l-1 -3l-5 -9l-2 -3l-3 -6l-2 -4l-3 -6l-2 -4l-3 -6l-1 -4l-3 -6l-2 -3q-2 -6 -4 -10v-1q-2 -6 -4 -9q0 -3 -1 -4l-2 -7q-1 -1 -1 -4l-3 -6
q0 -3 -1 -4l-2 -7l-1 -4l-2 -7l-1 -3q-2 -8 -2 -11q-1 0 -1 -0.5v-0.5q0 -4 -2 -8h-577q0 15 9 53t35 79q14 21 57 43t124 56q80 33 120 54.5t40 39.5q0 24 -6 40.5t-19 41.5q-18 33 -30 64.5t-20 85.5q-2 2 -12 9.5t-17 27t-7 52.5q0 68 25 70q-15 15 -22.5 29.5t-7.5 43.5
t8 58t18 44q18 26 40 26q14 0 14 17q0 8 -1.5 14.5t-1.5 11.5q0 6 4.5 14t12.5 11q3 1 46.5 13t108.5 22q57 9 99 9q91 0 127 -46q24 -33 24 -110q0 -45 -10 -87.5t-29 -69.5q31 -3 31 -76q-1 -35 -9 -51t-16.5 -22.5t-10.5 -9.5q-8 -58 -20.5 -92t-31.5 -68
q-12 -23 -17.5 -37.5t-5.5 -34.5q0 -9 12 -21q16 -14 74 -41l-2 -1l-4 -4l-4 -3l-4 -4l-4 -3l-3 -4l-5 -5q-4 -4 -6 -5l-4 -4l-3 -4l-4 -4l-4 -4l-3 -4l-4 -4l-3 -4l-3 -4l-4 -5l-3 -3l-6 -8l-3 -4l-3 -5l-3 -4l-3 -5l-3 -4l-3 -5l-3 -3zM1545.5 508.5q92.5 -54.5 147 -147
t54.5 -202.5t-54.5 -202.5t-147 -147t-202.5 -54.5t-202.5 54.5t-147 147t-54.5 202.5t54.5 202.5t147 147t202.5 54.5t202.5 -54.5zM1570.5 117.5q17.5 17.5 17.5 41.5q0 25 -17.5 42t-41.5 17h-127v127q0 25 -17.5 42t-41.5 17q-25 0 -42 -17t-17 -42v-127h-127
q-25 0 -42 -17t-17 -42q0 -24 17 -41.5t42 -17.5h127v-127q0 -24 17 -41.5t42 -17.5q24 0 41.5 17.5t17.5 41.5v127h127q24 0 41.5 17.5z" />
    <glyph glyph-name="uniE069" unicode="&#xe069;" 
d="M893 0h-644q-43 0 -74 31t-31 74v1316q0 44 31 74.5t74 30.5h1043q44 0 74.5 -30.5t30.5 -74.5v-796q-25 3 -51 3h-19v793q0 14 -10.5 24.5t-24.5 10.5h-1043q-14 0 -24.5 -10.5t-10.5 -24.5v-1316q0 -14 10.5 -24.5t24.5 -10.5h626q9 -46 18 -70zM963 556q21 -18 75 -41
q-126 -107 -159 -266h-583q0 15 9 53.5t36 79.5q14 22 56.5 43.5t125.5 56.5t122.5 56t39.5 40q0 24 -6 41t-20 41q-19 36 -30.5 67t-19.5 84q-2 2 -12 9.5t-17 27t-7 53.5q0 69 25 71q-15 14 -22.5 28.5t-7.5 42.5q0 30 8 60t18 45q19 27 41 27q14 0 14 16q0 6 -1.5 14
t-1.5 12v2q0 7 4.5 14t11.5 9q1 0 41.5 12t115.5 24q63 10 100 10q92 0 127 -47q25 -34 25 -112q0 -45 -10.5 -87.5t-29.5 -69.5q32 -3 32 -77q-1 -36 -9.5 -52t-17 -22.5t-10.5 -9.5q-8 -59 -20.5 -93t-31.5 -68q-12 -22 -17.5 -37t-5.5 -35q0 -10 12 -22zM1550.5 503
q93.5 -55 148.5 -148.5t55 -203.5q0 -111 -55 -204.5t-148.5 -148.5t-204.5 -55t-204.5 55t-148.5 148.5t-55 204.5q0 110 55 203.5t148.5 148.5t204.5 55t204.5 -55zM1438 157l106 106l-99 98l-105 -105l-106 105l-99 -98l106 -106l-106 -106l99 -98l106 106l105 -106
l99 98z" />
    <glyph glyph-name="uniE070" unicode="&#xe070;" 
d="M875 15q0 -3 2 -9h-646q-43 0 -74 31t-31 75v1320q0 44 31 74.5t74 30.5h1046q44 0 75 -31t31 -74v-798h-2h-4q-3 1 -8 1h-3q-22 2 -34 2l-12 -1h-3h-5v796q0 15 -10 25t-25 10h-1046q-14 0 -24.5 -10t-10.5 -25v-1320q0 -15 10.5 -25t24.5 -10h629v-2l1 -5l1 -6l1 -4
l2 -9l1 -4l2 -8q0 -2 1 -3q0 -3 2 -7v-4l3 -9zM924 408l-2 -3l-4 -7l-2 -2l-5 -10q0 -1 -2 -3l-3 -6l-2 -4l-3 -6l-2 -4l-3 -6l-1 -4l-3 -7l-2 -3q-3 -8 -4 -10q-2 -6 -4 -10q0 -2 -1 -3q-2 -6 -2 -7l-2 -4q0 -3 -2 -7l-1 -4l-2 -7q-1 -1 -1 -4q-2 -4 -2 -8q-1 0 -1 -2
l-3 -11v-2l-2 -8h-584q0 15 9 54t35 80q14 22 60.5 45t121.5 54q82 34 122.5 56t40.5 41q0 24 -6 41.5t-19 41.5q-38 69 -50 151q-2 2 -12 9.5t-17.5 25.5t-7.5 49q0 75 26 77q-16 15 -23.5 30t-7.5 44q0 30 8 59t18 44q19 27 41 27q14 0 14 17q0 8 -1.5 14.5t-1.5 11.5
q0 6 4.5 14t12.5 11q60 20 157 36q57 9 100 9q94 0 128 -47q25 -34 25 -112q0 -45 -10.5 -88t-29.5 -70q32 -3 32 -77q-1 -36 -9.5 -52t-17 -22.5t-10.5 -9.5q-8 -58 -20.5 -92t-31.5 -70q-12 -22 -17.5 -37t-5.5 -35q0 -10 12 -21q20 -19 75 -42l-2 -2l-4 -3q-3 -1 -4 -4
l-4 -3l-4 -4q-3 -1 -4 -4l-5 -4l-6 -6l-4 -4l-3 -4l-4 -4l-4 -4l-3 -4l-4 -4l-3 -4l-4 -4l-3 -5l-3 -3l-6 -9l-3 -3l-4 -5l-3 -4l-3 -5l-3 -4l-3 -5l-3 -4zM1537 511q94 -55 149 -148.5t55 -204.5t-55 -205t-149 -149t-205 -55t-205 55t-149 149t-55 205t55 204.5t149 148.5
t205 55t205 -55zM1521.5 115.5q17.5 17.5 17.5 42.5t-17.5 42t-42.5 17h-294q-25 0 -42.5 -17t-17.5 -42t17.5 -42.5t42.5 -17.5h294q25 0 42.5 17.5z" />
    <glyph glyph-name="uniE071" unicode="&#xe071;" 
d="M1223 426v-283q0 -42 -30 -72t-72 -30h-1013q-42 0 -72 30t-30 72v1278q0 43 30 72.5t72 29.5h1013q42 0 72 -29.5t30 -72.5v-410l-68 -63v473q0 14 -10 24t-24 10h-1013q-14 0 -24 -10t-10 -24v-1278q0 -14 10 -24t24 -10h1013q14 0 24 10t10 24v220zM732 552l-147 -251
h-465q0 14 8.5 50.5t33.5 74.5q13 21 55 42t115 51q78 33 115 53t37 37q0 23 -5.5 39t-18.5 39q-17 33 -28 62t-18 79q-2 2 -11.5 8.5t-16 25t-6.5 50.5q0 65 23 67q-14 13 -21 26.5t-7 38.5q0 29 7.5 56.5t17.5 43.5q17 25 38 25q13 0 13 15q0 8 -1.5 14t-1.5 11
q0 6 4.5 13.5t11.5 9.5q59 20 146 34q53 9 93 9q87 0 121 -44q22 -29 22 -103q0 -43 -9.5 -83.5t-27.5 -65.5q30 -3 30 -68q0 -37 -8.5 -53t-16 -22t-9.5 -8q-12 -84 -49 -151q-12 -21 -17 -35t-5 -33q0 -9 12 -20l11 -9l-6 -5q-12 -12 -19 -23zM640 137l346 164l8 6
l735 679q31 28 31 72q0 37 -24 65l-67 75q-28 29 -68 31q-39 3 -69 -25l-735 -679l-6 -8l-195 -332q-5 -10 -5 -18q0 -13 9 -22q11 -11 24 -11q9 0 16 3zM1598 1162q13 -2 20 -10l67 -74q8 -10 8 -20q0 -12 -10 -22l-731 -676l-241 -114l136 233l731 675q10 8 20 8z" />
    <glyph glyph-name="uniE072" unicode="&#xe072;" 
d="M1723.5 1511q29.5 -17 46.5 -46.5t17 -63.5v-1523q0 -34 -17 -63.5t-46.5 -46.5t-63.5 -17h-1523q-34 0 -63.5 17t-46.5 46.5t-17 63.5v1523q0 34 17 63.5t46.5 46.5t63.5 17h1523q34 0 63.5 -17zM1689.5 1430.5q-12.5 12.5 -29.5 12.5h-1523q-17 0 -29.5 -12.5
t-12.5 -29.5v-1523q0 -17 12.5 -29.5t29.5 -12.5h1523q17 0 29.5 12.5t12.5 29.5v1523q0 17 -12.5 29.5zM1450 881.5q64 -37.5 101.5 -101.5t37.5 -140t-37.5 -140t-101.5 -102t-140 -38h-823q-76 0 -140 38t-102 102t-38 140t38 140t102 101.5t140 37.5t140 -37.5
t101.5 -101.5t37.5 -140q0 -114 -79 -195h423q-79 81 -79 195q0 76 37.5 140t101.5 101.5t140 37.5t140 -37.5zM318 542q26 -45 71 -71t98 -26t97.5 26t70.5 71t26 98t-26 97.5t-70.5 70.5t-97.5 26t-98 -26t-71 -70.5t-26 -97.5t26 -98zM1407.5 471q44.5 26 71 71t26.5 98
t-26.5 97.5t-71 70.5t-97.5 26t-97.5 -26t-71 -70.5t-26.5 -97.5t26.5 -98t71 -71t97.5 -26t97.5 26z" />
    <glyph glyph-name="uniE073" unicode="&#xe073;" 
d="M1757 1504q24 -24 24 -58v-1402q0 -34 -24 -58t-58 -24h-277q9 40 10 73q1 3 1 9h266v1v1401h-1104v-649l-83 99v550q0 34 24.5 58t58.5 24h1104q34 0 58 -24zM1474 1226.5q12 12.5 12 29.5t-12 29t-29 12h-593q-17 0 -29.5 -12t-12.5 -29t12.5 -29.5t29.5 -12.5h593
q17 0 29 12.5zM1275 -149q67 73 75 189q2 23 -18 36l-296 205q-11 7 -25 7q-8 0 -12 -1l-17.5 -6.5t-47.5 -27.5t-51 -46q-13 -15 -29 -48q-10 -22 -18 -33q-157 77 -263 174q-84 77 -185 235q9 6 27 11q43 16 61 34q23 23 38 50t22 46.5t9 26.5q1 3 1 8q0 14 -10 27
l-230 278q-15 18 -38 15q-113 -18 -181 -92q-77 -85 -77 -216q0 -88 36 -192q42 -121 127 -242t202 -228q158 -146 332 -226q169 -80 319 -80q161 0 249 96zM1474 939.5q12 12.5 12 29.5t-12 29t-29 12h-593q-17 0 -29.5 -12t-12.5 -29t12.5 -29.5t29.5 -12.5h593
q17 0 29 12.5zM418 639q-7 -7 -31 -15q-55 -19 -84 -51q-11 -13 -11 -28q0 -10 6 -21q24 -42 87 -132t132 -153q59 -54 127.5 -98.5t121 -71.5t65.5 -32q8 -4 17 -4q17 0 30 13q30 34 50 77q9 19 18 31q24 28 61 47l259 -179q-11 -71 -52 -115q-64 -70 -188 -70
q-132 0 -292 76.5t-304 207.5q-109 101 -188 214t-118 224q-31 89 -31 166q0 98 54 158q41 45 111 62l200 -242q-13 -37 -40 -64zM1474 651q12 12 12 29t-12 29t-29 12h-593q-17 0 -29.5 -12t-12.5 -29t12.5 -29t29.5 -12h593q17 0 29 12zM1474 364q12 12 12 29t-12 29
t-29 12h-297q-17 0 -29 -12t-12 -29t12 -29t29 -12h297q17 0 29 12z" />
    <glyph glyph-name="uniE074" unicode="&#xe074;" 
d="M733 -237q109 0 206 79q17 14 14 36l-56 395q-3 20 -19 29q-1 0 -34 16t-96 18h-18q-22 -1 -60 -12q-25 -8 -48 -12q-20 69 -38 164.5t-19 188.5q0 126 55 336q13 -3 37 -16q48 -24 80 -24q68 0 103 17.5t36 17.5q16 9 19 29l54 396q2 23 -15 35q-96 78 -206 78
q-106 0 -202 -75q-87 -69 -154 -194q-66 -123 -101.5 -281t-35.5 -330q0 -175 35.5 -334.5t102.5 -284.5q69 -129 160 -199t192 -73h8zM869 1409l-48 -353q-49 -18 -87 -17h-3q-10 0 -38 15q-54 29 -101 29q-13 0 -23 -7.5t-14 -20.5q-6 -19 -22.5 -82.5t-31 -148.5
t-14.5 -159q0 -87 15.5 -176t32 -150.5t22.5 -78.5q10 -27 37 -27q46 0 99 16q27 9 40 9q7 1 13 0q36 0 77 -17l50 -352q-67 -48 -140 -48h-6v0q-78 1 -153 61q-75 61 -133 170q-62 115 -95 263.5t-34 311.5q0 166 33 316t95 265q59 110 134 170q74 57 154 59h6
q69 -3 135 -48zM1709.5 800.5q11.5 -11.5 11.5 -27.5v-247q0 -16 -11.5 -27.5t-27.5 -11.5h-133q-18 -56 -41 -99l88 -88q11 -10 11 -27t-11 -28l-175 -175q-13 -11 -28 -11q-16 0 -27 11l-89 89q-44 -24 -98 -40v-135q0 -17 -11 -28t-28 -11h-118l-11 78h90v156l30 7
q67 16 133 55l25 15l59 -58l45 -46l120 121l-103 103l16 26q38 62 56 133l7 29h154v170h-153l-7 30q-18 73 -55 135l-16 26l62 61l32 32l-120 121l-94 -94l-26 16q-63 39 -135 57l-30 7v151h-94l11 78h122q16 0 27.5 -11.5t11.5 -27.5v-130q54 -17 101 -42l78 78
q11 11 28 11t27 -11l175 -175q11 -10 11 -27t-11 -28l-79 -79q27 -51 41 -100h132q16 0 27.5 -11.5zM1165 905.5q68 -39.5 107.5 -107.5t39.5 -149q0 -80 -39.5 -148t-107.5 -108t-149 -40q-80 0 -148 40t-107.5 108t-39.5 148q0 81 39.5 149t107.5 107.5t148 39.5
q81 0 149 -39.5zM1125.5 460.5q50.5 29.5 80 79.5t29.5 109q0 60 -29.5 110t-79.5 79.5t-110 29.5q-59 0 -109 -29.5t-79.5 -80t-29.5 -109.5t29.5 -109t79.5 -79.5t109 -29.5t109.5 29.5z" />
    <glyph glyph-name="uniE075" unicode="&#xe075;" 
d="M140.5 724.5q124.5 234.5 342 386.5t484.5 185q33 5 66 6v151q0 26 12 46.5t33 31.5q17 9 36 9q27 0 54 -19l604 -451l-604 -452q-25 -19 -54 -19q-18 0 -36 8q-45 24 -45 79v147q-22 -2 -34 -4q-159 -18 -301.5 -92t-249.5 -193q-109 -121 -166.5 -272t-57.5 -313
q0 -66 9 -132q1 -3 1 -10q0 -22 -13.5 -40t-35.5 -25q-6 -2 -19 -2q-20 0 -37 11t-25 30q-88 205 -88 429q0 270 124.5 504.5zM347 634q124 139 288 224t348 106q68 7 117 7h68v-184l261 195l116 88l-377 282v-183h-68q-49 0 -117 -7q-216 -27 -395.5 -143.5t-293 -297.5
t-137.5 -394q67 170 190 307z" />
    <glyph glyph-name="uniE076" unicode="&#xe076;" 
d="M593 726q0 -18 -11 -32q-15 -21 -42 -21q-18 0 -31 10l-487 365l487 364q13 10 31 10q27 0 42 -21q11 -14 11 -32q0 -26 -21 -41l-375 -280l375 -281q21 -15 21 -41zM1332 1079.5q168 -117.5 264 -299t96 -389.5q0 -173 -69 -331q-6 -15 -19 -23.5t-29 -8.5q-4 0 -14 2
q-19 6 -29.5 22.5t-7.5 35.5q7 48 7 102q0 125 -44.5 241.5t-128.5 210.5q-82 92 -192 149t-233 71l-27 3v-114q0 -42 -35 -60q-11 -7 -27 -7q-23 0 -42 15l-466 349l466 348q19 15 41 15q12 0 28 -7q35 -17 35 -60v-117q34 -2 51 -4q207 -26 375 -143.5zM1582 474
q-18 165 -105.5 304.5t-226.5 229.5t-306 111q-36 5 -90 5h-52v142l-292 -218l292 -218v141h52q54 0 91 -5q142 -17 268.5 -82.5t222.5 -171.5q97 -110 146 -238z" />
    <glyph glyph-name="uniE077" unicode="&#xe077;" 
d="M1294.5 1093.5q215.5 -150.5 338.5 -382.5t123 -499q0 -219 -87 -424q-8 -19 -25 -30t-37 -11q-9 0 -18 3q-22 6 -35.5 24t-13.5 40q0 7 1 10q9 64 9 130q0 161 -57 310.5t-164 268.5t-247.5 191.5t-297.5 90.5l-34 3v-145q0 -25 -12 -46t-33 -32q-18 -8 -35 -8
q-27 0 -54 19l-597 447l597 446q27 19 53 19q20 0 36 -9q21 -11 33 -31.5t12 -45.5v-149l65 -6q264 -33 479.5 -183.5zM1616 318q-24 211 -136 390t-290 294t-391 142q-66 7 -116 7h-67v181l-373 -279l373 -280v182h67q63 0 116 -7q181 -21 344 -105t286 -221
q122 -135 187 -304z" />
    <glyph glyph-name="uniE078" unicode="&#xe078;" 
d="M900 1456q11 8 23 8q18 0 31 -16q8 -11 8 -23q0 -18 -16 -31l-277 -207l277 -207q16 -13 16 -32q0 -12 -8 -23q-12 -15 -31 -15q-14 0 -23 8l-360 269zM1148 1455q12 0 20 -5q26 -13 26 -44v-86q26 -2 37 -4q153 -19 277 -105.5t195 -220.5t71 -288q0 -128 -50 -245
q-11 -24 -36 -24q-4 0 -10 2q-14 4 -22 16.5t-6 26.5q6 38 6 75q0 92 -33 178.5t-95 155.5q-62 68 -143 110.5t-172 52.5l-19 2v-84q0 -32 -26 -45q-12 -5 -20 -5q-16 0 -32 11l-344 258l344 257q16 11 32 11zM967 1137l149 -111v104h39q34 0 67 -3q106 -13 199.5 -61.5
t163.5 -127.5q70 -77 108 -175q-14 122 -78.5 225.5t-167 169.5t-225.5 81q-37 5 -67 5h-39v104l-215 -161zM1688 356q22 0 39 7v-325q0 -48 -34 -82t-82 -34h-1478q-48 0 -82 34t-34 82v976q0 48 34 82t82 34h354l7 -5l96 -72h-435l680 -543q16 -11 37 -11q22 0 36 11
l489 390q32 -22 60 -51l-274 -218l467 -567v299q4 -2 6 -2q18 -5 32 -5z" />
    <glyph glyph-name="uniE079" unicode="&#xe079;" 
d="M1080 1453q16 11 31 11q10 0 20 -5q26 -13 26 -45v-91q28 -2 41 -4q161 -19 292.5 -109t206.5 -229t75 -298q0 -133 -53 -254q-11 -23 -36 -23q-7 0 -10 2q-14 4 -22 16t-6 26q6 39 6 79q0 96 -35 185.5t-101 161.5q-65 71 -151.5 115t-183.5 55l-23 2v-90q0 -31 -26 -44
q-9 -5 -21 -5q-17 0 -30 10l-365 268zM917 1134l162 -119v111h39q39 0 71 -4q110 -12 209 -62t174 -132q82 -89 121 -198q-11 130 -79 241.5t-179.5 183.5t-245.5 88q-46 4 -71 4h-39v111l-233 -171zM1683 329q21 0 39 6v-299q0 -48 -34 -82t-82 -34h-1476q-48 0 -81.5 34
t-33.5 82v975q0 47 33.5 81t81.5 34h537l2 -2l103 -75h-619l680 -542q16 -11 36 -11q22 0 36 11l478 382q29 -20 61 -50l-264 -212l465 -566v274q2 0 6 -2q15 -4 32 -4z" />
    <glyph glyph-name="uniE080" unicode="&#xe080;" 
d="M59 431q-54 122 -54 255q0 161 75.5 300.5t208 230.5t294.5 110q14 2 42 4v92q0 32 26 45q10 5 21 5q15 0 31 -11l367 -268l-367 -269q-16 -11 -31 -11q-9 0 -21 5q-26 13 -26 45v90l-23 -2q-97 -11 -184.5 -55.5t-153.5 -115.5q-66 -73 -101.5 -163t-35.5 -187
q0 -40 6 -79q2 -14 -5.5 -26.5t-21.5 -16.5q-8 -2 -11 -2q-26 0 -36 24zM345 1161.5q-112 -72.5 -180.5 -184.5t-79.5 -244q41 112 122 200q75 82 174.5 132.5t211.5 63.5q31 4 71 4h39v-112l163 120l73 53l-236 172v-112h-39q-40 0 -72 -4q-135 -16 -247 -88.5z
M1741.5 1099q34.5 -34 34.5 -83v-982q0 -48 -34.5 -82t-82.5 -34h-1487q-48 0 -82 34t-34 82v302q18 -6 39 -6q19 0 32 4q4 2 7 2v-276l468 571l-266 212q30 30 61 51l482 -385q16 -11 37 -11q22 0 36 11l684 546h-623l103 76l3 2h540q48 0 82.5 -34z" />
    <glyph glyph-name="uniE081" unicode="&#xe081;" 
d="M1261 769q-15 -12 -32 -12q-9 0 -21 5q-26 15 -26 46v153q-34 -2 -49 -4q-138 -16 -262 -80t-218 -169t-144.5 -236.5t-50.5 -272.5q0 -55 8 -114q2 -15 -6 -27.5t-22 -16.5q-8 -2 -11 -2q-26 0 -36 24q-74 171 -74 358q0 166 59 321t170 280q110 123 255.5 199.5
t308.5 96.5q36 5 72 6v154q0 33 26 46q12 5 21 5q16 0 32 -11l501 -374zM1261 1419v-173h-39q-52 0 -102 -6q-149 -19 -282 -89t-233 -182q-101 -113 -155 -255t-54 -293q0 -15 2 -45q46 218 196 385q103 115 240 186t290 89q53 5 98 5h39v-174l369 277zM1261 678v-808
q0 -49 -34.5 -83.5t-83.5 -34.5h-1002q-49 0 -83.5 34.5t-34.5 83.5v1336q0 49 34.5 83.5t83.5 34.5h545v-79h-545q-16 0 -27.5 -11.5t-11.5 -27.5v-1336q0 -17 11.5 -28t27.5 -11h1002q16 0 27.5 11.5t11.5 27.5v808h79z" />
    <glyph glyph-name="uniE082" unicode="&#xe082;" 
d="M1748 1254.5q15 -14.5 15 -35.5q0 -20 -15 -35t-35 -15h-1627q-21 0 -35.5 15t-14.5 35q0 21 14.5 35.5t35.5 14.5h516q7 75 48.5 137t107 98t141.5 36t141.5 -36t107 -98t48.5 -137h517q20 0 35 -14.5zM807.5 1416.5q-42.5 -22.5 -70 -61t-34.5 -86.5h392
q-7 48 -34.5 86.5t-70 61t-91.5 22.5t-91.5 -22.5zM1666 1069l-77 -1166q-2 -40 -24.5 -73.5t-57.5 -53.5t-75 -20h-1064q-40 0 -75 20t-57.5 53.5t-24.5 73.5l-78 1166h100l78 -1159q2 -22 18.5 -38t38.5 -16h1064q22 0 38.5 16t18.5 38l76 1159h101zM510 870v-715h100v715
h-100zM849 870v-715h100v715h-100zM1188 870v-715h100v715h-100z" />
    <glyph glyph-name="uniE083" unicode="&#xe083;" 
d="M1768 709q0 -17 -11 -27l-226 -227l-74 -73l-299 300q-11 10 -11 27q0 9 2 13q10 23 35 23h141q0 8 -2 18q-13 109 -75.5 198t-158.5 139.5t-206 50.5q-95 0 -178 -37q-7 -3 -15 -3q-15 0 -26 11l-140 140q-13 13 -11 31q3 19 19 27q162 93 351 93q132 0 255 -47.5
t221 -136.5q97 -88 155.5 -204.5t71.5 -246.5l2 -33h143q25 0 35 -23q2 -4 2 -13zM1552 671q-16 0 -26.5 10.5t-10.5 26.5q0 32 -3 62q-12 117 -64.5 221t-139.5 183q-87 80 -196.5 122.5t-228.5 42.5q-140 0 -271 -60l87 -87q87 34 184 34q95 0 184 -34t160 -97
q71 -62 115 -145.5t55 -176.5q4 -28 4 -65q0 -14 -10 -26q-13 -11 -27 -11h-91l184 -184l21 20l163 164h-89zM1251 122q-2 -18 -18 -28l-2 -1q-1 -1 -2 -1.5l-3 -1.5q-160 -89 -343 -89q-130 0 -251 46t-218 132q-96 85 -155.5 198.5t-76.5 240.5q-2 16 -4 52h-144
q-26 0 -34 23q-3 8 -3 15q0 15 11 26l300 300l300 -300q11 -11 11 -27t-11.5 -26.5t-26.5 -10.5h-141l3 -21q10 -79 48 -150t98 -125q61 -53 136.5 -81.5t157.5 -28.5q93 0 177 36q8 3 15 3q15 0 26 -11l140 -140q13 -13 10 -30zM1152 136l-86 86q-88 -33 -183 -33
t-183.5 33.5t-159.5 96.5q-71 62 -115 144.5t-56 175.5q-5 38 -5 68q0 16 11 26.5t27 10.5h90l-184 185l-16 -17l-168 -168h90q15 0 26 -10.5t11 -26.5q0 -35 5 -80q14 -113 68 -214t140 -178t194 -118t225 -41q143 0 269 60z" />
    <glyph glyph-name="uniE084" unicode="&#xe084;" 
d="M1790 634q0 -183 -70 -347q-69 -162 -191 -284q-124 -124 -284 -191q-167 -70 -347 -70t-347 70q-160 67 -284 191q-122 122 -191 284q-70 164 -70 347q0 184 70 348q68 160 191 283q126 126 284 191q166 71 347 71t347 -71q158 -65 284 -191q123 -123 191 -283
q70 -164 70 -348zM1635.5 328q60.5 146 60.5 306t-60 306t-173 259t-259 173.5t-306 60.5t-306 -60.5t-258 -173.5q-113 -113 -173.5 -259t-60.5 -306t60.5 -306t173.5 -258q112 -113 258 -173.5t306 -60.5t306 60.5t259 173.5q112 112 172.5 258zM965.5 1163
q30.5 -18 48.5 -48.5t18 -66.5t-18 -67t-48.5 -49t-66.5 -18t-66.5 18t-48.5 49t-18 67t18 66.5t48.5 48.5t66.5 18t66.5 -18zM1018.5 814.5q13.5 -13.5 13.5 -33.5v-648q0 -21 -14 -33q-14 -14 -33 -14h-173q-19 0 -33 14t-14 33v601h-57v94h277q20 0 33.5 -13.5z" />
    <glyph glyph-name="uniE085" unicode="&#xe085;" 
d="M1796 511q0 -25 -19 -40q-15 -12 -34 -12q-25 0 -41 19l-169 205v-878q0 -22 -15.5 -37.5t-37.5 -15.5h-374q-22 0 -37.5 15.5t-15.5 37.5v488q0 8 -5.5 14t-13.5 6h-257q-8 0 -14 -6t-6 -14v-488q0 -22 -15.5 -37.5t-37.5 -15.5h-373q-22 0 -37.5 15.5t-15.5 37.5v878
l-170 -205q-15 -19 -40 -19q-19 0 -34 12q-19 15 -19 40q0 19 12 34l263 319l520 629q40 46 95 46q57 0 95 -46l427 -516v285q0 22 15.5 37.5t37.5 15.5t37.5 -15.5t15.5 -37.5v-413l251 -304q12 -15 12 -34zM919 1425q-6 8 -14 8q-7 0 -13 -8l-508 -614v-953h267v435
q0 53 37 89.5t89 36.5h257q52 0 88.5 -37t36.5 -89v-435h268v953z" />
    <glyph glyph-name="uniE086" unicode="&#xe086;" 
d="M693 102q-97 153 -171 377q-83 250 -83 439q0 163 68 296q55 107 149 186q67 56 130.5 86t87.5 36q8 2 11 2q4 0 12 -2q24 -6 87 -36t130 -86q95 -78 150 -186q68 -133 68 -296q0 -185 -83 -439q-76 -224 -171 -377q-13 -19 -35 -19h-316q-23 0 -34 19zM553 668
q33 -139 86 -272.5t111 -231.5h270q58 97 111 231t86 273t33 250q0 144 -59 259q-47 92 -129 160q-82 69 -177 103q-96 -34 -179 -105q-81 -69 -128 -160q-58 -116 -58 -257q0 -111 33 -250zM1078 911.5q-29 -49.5 -79 -79t-109 -29.5t-108.5 29.5t-79 79t-29.5 108.5
t29.5 109t79 79.5t108.5 29.5t109 -29.5t79 -79.5t29 -109t-29 -108.5zM773.5 953q18.5 -31 49.5 -49.5t67 -18.5q37 0 68 18.5t49.5 49.5t18.5 67q0 37 -18.5 68t-49.5 49.5t-68 18.5q-36 0 -67 -18.5t-49.5 -49.5t-18.5 -68q0 -36 18.5 -67zM560 212q4 -7 4 -17t-4 -18
q-8 -17 -27 -22q-148 -38 -190 -186q-15 -54 -15 -114q0 -16 1 -25.5t1 -12.5q2 -16 -6.5 -28.5t-23.5 -16.5q-8 -2 -11 -2q-27 0 -37 25q-9 19 -37.5 87.5t-59.5 149.5q-98 262 -98 367q0 102 135 143q81 23 202 23h2q13 0 24 -8t15 -21l22 -70q43 -130 103 -254zM1733 399
q0 -105 -98 -367q-31 -81 -59.5 -149.5t-37.5 -87.5q-10 -25 -37 -25q-3 0 -11 2q-15 4 -23 16.5t-6 28.5q0 3 1 12.5t1 24.5q0 63 -16 117q-45 152 -198 186q-19 3 -28 22q-4 12 -4 18q0 7 4 17q57 117 102 252q6 16 22 70q4 13 15 21t24 8h12q121 0 202 -23
q135 -41 135 -143zM466 219q-46 101 -86 222q-10 28 -14 42q-96 -3 -162 -23.5t-66 -60.5q0 -89 94 -338q20 -54 30 -78l1 5q47 171 203 231zM1652 399q0 41 -77 64q-60 18 -161 20l-13 -42q-36 -109 -85 -219q162 -57 210 -231l2 -8l31 78q93 248 93 338zM1066 -11
q12 -12 12 -29t-12 -29t-29 -12h-294q-17 0 -29 12t-12 29t12 29t29 12h294q17 0 29 -12zM1011 -175q12 -12 12 -29t-12 -29t-29 -12h-184q-16 0 -28.5 12t-12.5 29t12 29t29 12h184q17 0 29 -12z" />
    <glyph glyph-name="uniE087" unicode="&#xe087;" 
d="M1755 1099q19 -19 19 -45v-957q0 -21 -12.5 -38t-32.5 -23q-9 -4 -20 -4q-32 0 -53 27l-577 795v-757q0 -27 -19 -46t-46 -19t-46 19t-19 46v126q-12 -15 -27 -30q-76 -78 -173.5 -119.5t-204.5 -41.5t-205 41.5t-174 119.5q-75 77 -115.5 177t-40.5 209t40.5 209.5
t115.5 177.5q76 78 174 119.5t205 41.5t204.5 -41.5t173.5 -119.5q15 -15 27 -30v118q0 27 18.5 45.5t46.5 18.5q34 0 52 -26l578 -795v757q0 26 19 45t46 19t46 -19zM917.5 418.5q30.5 76.5 30.5 160.5t-30.5 161t-88.5 136q-57 58 -131 89.5t-154 31.5q-81 0 -154.5 -31
t-131.5 -90t-88.5 -136t-30.5 -161t30.5 -160.5t88.5 -135.5t131.5 -90.5t154.5 -31.5q80 0 154 31.5t131 90.5q58 59 88.5 135.5zM753 587l-338 -194v387z" />
    <glyph glyph-name="uniE088" unicode="&#xe088;" 
d="M1773.5 824q12.5 -12 12.5 -29v-315q0 -17 -12.5 -29t-29.5 -12h-175q-21 -71 -57 -136l117 -117q12 -12 12 -29t-12 -29l-223 -223q-12 -12 -30 -12q-17 0 -29 12l-117 118q-61 -34 -135 -56v-178q0 -17 -12 -29t-29 -12h-316q-17 0 -29 12t-12 29v178q-74 23 -134 56
l-108 -108q-12 -12 -29 -12t-29 12l-223 223q-12 12 -12 29t12 29l106 107q-36 67 -56 136h-176q-17 0 -29 12t-12 29v315q0 17 12 29t29 12h174q20 70 56 138l-104 105q-12 12 -12 29t12 29l223 223q12 12 29 12t29 -12l104 -104q70 38 138 58v172q0 17 12.5 29t28.5 12
h316q17 0 29 -12t12 -29v-172q70 -20 139 -58l103 104q12 12 30 12q17 0 29 -12l223 -223q12 -12 12 -29q0 -18 -12 -29l-105 -105q37 -68 56 -138h174q17 0 29.5 -12zM1539 754q-14 0 -25.5 9t-14.5 23q-22 92 -72 174q-5 8 -5 21q0 17 12 29l98 98l-165 165l-98 -97
q-12 -12 -28 -12q-12 0 -22 6q-80 49 -175 72q-14 4 -22.5 15t-8.5 25v163h-233v-163q0 -14 -9 -25t-23 -15q-94 -23 -174 -72q-10 -6 -22 -6q-17 0 -29 12l-97 97l-165 -165l98 -98q12 -12 12 -29q0 -12 -6 -21q-50 -84 -71 -174q-4 -14 -15 -23t-25 -9h-165v-233h166
q14 0 25.5 -9t14.5 -22q23 -93 72 -172q6 -9 6 -21q0 -18 -12 -30l-100 -100l165 -165l101 101q12 12 29 12q12 0 21 -6q81 -49 171 -70q14 -4 23 -15t9 -25v-169h233v169q0 14 8.5 25t22.5 15q89 20 171 70q11 6 21 6q18 0 30 -12l110 -111l165 165l-110 110q-12 12 -12 30
q0 11 6 21q49 79 72 172q4 14 15 22.5t25 8.5h166v233h-164zM979.5 1076q34.5 -34 34.5 -82t-34.5 -82.5t-82.5 -34.5t-82.5 34.5t-34.5 82.5t34.5 82t82.5 34t82.5 -34zM1001.5 789.5q12.5 -12.5 12.5 -29.5v-568q0 -15 -12 -29q-12 -12 -30 -12h-151q-17 0 -29 12t-12 29
l-1 527h-49v83h242q17 0 29.5 -12.5z" />
    <glyph glyph-name="uniE089" unicode="&#xe089;" 
d="M1740 1125q36 -36 36 -86v-1145q0 -50 -36 -86t-87 -36h-1521q-50 0 -86 36t-36 86v1145q0 50 36 86t86 36h1041l-167 168q-12 12 -12 28q0 17 12 29t29 12t29 -12l198 -198l290 290q12 12 29 12t29 -12t12 -29q0 -16 -12 -28l-260 -260h303q51 0 87 -36zM1682 1008
q-12 12 -29 12h-1521q-17 0 -28.5 -12t-11.5 -29v-961q0 -17 11.5 -29t28.5 -12h1521q17 0 29 12t12 29v961q0 17 -12 29zM1156 483l-442 -221v442z" />
    <glyph glyph-name="uniE090" unicode="&#xe090;" 
d="M425 986.5q11 11.5 11 27.5v247q0 17 -11 28t-28 11h-336q-16 0 -27.5 -11.5t-11.5 -27.5v-247q0 -16 11.5 -27.5t27.5 -11.5h336q17 0 28 11.5zM1761.5 986.5q11.5 11.5 11.5 27.5v247q0 16 -11.5 27.5t-28.5 11.5h-1101q-16 0 -27.5 -11.5t-11.5 -27.5v-247
q0 -16 11.5 -27.5t27.5 -11.5h1101q17 0 28.5 11.5zM358 1222v-169h-257v169h257zM1694 1222v-169h-1022v169h1022zM425 503.5q11 11.5 11 27.5v247q0 17 -11.5 28.5t-27.5 11.5h-336q-16 0 -27.5 -12t-11.5 -28v-247q0 -16 11.5 -27.5t27.5 -11.5h336q17 0 28 11.5z
M1761.5 503.5q11.5 11.5 11.5 27.5v247q0 17 -11.5 28.5t-28.5 11.5h-1101q-16 0 -27.5 -12t-11.5 -28v-247q0 -16 11.5 -27.5t27.5 -11.5h1101q17 0 28.5 11.5zM358 739v-169h-257v169h257zM1694 739v-169h-1022v169h1022zM424.5 20.5q11.5 11.5 11.5 27.5v248
q0 16 -11.5 27.5t-27.5 11.5h-336q-16 0 -27.5 -11.5t-11.5 -27.5v-248q0 -16 11.5 -27.5t27.5 -11.5h336q16 0 27.5 11.5zM1761 20.5q12 11.5 12 27.5v248q0 16 -12 27.5t-28 11.5h-1101q-16 0 -27.5 -11.5t-11.5 -27.5v-248q0 -16 11.5 -27.5t27.5 -11.5h1101
q16 0 28 11.5zM358 256v-169h-257v169h257zM1694 256v-169h-1022v169h1022z" />
    <glyph glyph-name="uniE091" unicode="&#xe091;" 
d="M617 764l161 161q15 15 15 36t-15 36l-232 232l190 190q15 15 15 36q0 12 -4 20q-13 31 -47 31h-613q-21 0 -36 -15t-15 -36v-613q0 -34 32 -47q8 -4 20 -4q22 0 35 15l191 190l231 -232q16 -14 36 -14q22 0 36 14zM1250 764l232 232l190 -190q17 -15 37 -15q11 0 19 4
q14 6 22.5 19t8.5 28v613q0 21 -15 36t-36 15h-613q-34 0 -47 -31q-4 -8 -4 -20q0 -21 15 -36l190 -190l-231 -232q-15 -15 -15 -36t15 -36l160 -161q16 -14 36 -14q22 0 36 14zM278 1104l-140 -139v439h439l-139 -139q-15 -15 -15 -36t15 -36l232 -232l-89 -88l-231 231
q-15 15 -36 15q-22 0 -36 -15zM1372 1229q0 21 -15 36l-139 139h439v-439l-139 139q-15 15 -36 15t-36 -15l-232 -231l-88 88l231 232q15 14 15 36zM729 -209q13 9 19 23q4 8 4 19q0 21 -15 36l-191 191l232 231q15 15 15 36q0 23 -15 36l-161 161q-13 15 -36 15
q-21 0 -36 -15l-231 -232l-191 190q-14 15 -35 15q-12 0 -20 -4q-32 -13 -32 -47v-613q0 -21 15 -36t36 -15h614q15 0 28 9zM1744 -203q15 15 15 36v614q0 15 -8.5 28t-22.5 19q-8 4 -19 4q-20 0 -37 -15l-190 -191l-232 232q-13 15 -36 15q-21 0 -36 -15l-160 -161
q-15 -13 -15 -36q0 -21 15 -36l231 -231l-190 -191q-15 -15 -15 -36q0 -11 4 -19q6 -14 19 -23t28 -9h613q21 0 36 15zM278 184q15 -15 36 -15t36 15l231 232l89 -89l-232 -231q-15 -15 -15 -36t15 -36l140 -140h-440v440zM1372 60q0 21 -15 36l-231 231l88 89l232 -232
q15 -15 36 -15t36 15l139 140v-440h-439l139 140q15 15 15 36z" />
    <glyph glyph-name="uniE092" unicode="&#xe092;" 
d="M760 765.5q15 14.5 15 36.5v616q0 15 -9 28t-23 19q-8 4 -19 4q-20 0 -37 -15l-191 -191l-232 232q-15 15 -36 15q-22 0 -37 -15l-161 -161q-15 -17 -15 -36q0 -21 15 -36l233 -233l-191 -191q-15 -15 -15 -36q0 -12 4 -20q13 -31 47 -31h615q22 0 37 14.5zM1697 759.5
q13 8.5 19 22.5q4 8 4 20q0 21 -15 36l-191 191l232 233q15 14 15 36q0 23 -15 36l-161 161q-15 15 -36 15t-36 -15l-233 -232l-191 191q-17 15 -37 15q-11 0 -19 -4q-14 -6 -22.5 -19t-8.5 -29v-615q0 -21 14.5 -36t36.5 -15h616q15 0 28 8.5zM386 1029q0 21 -15 36
l-232 233l88 89l233 -233q15 -15 36 -15q23 0 36 15l140 140v-441h-441l140 140q15 15 15 36zM1244 1154q15 -15 36 -15t36 15l233 233l89 -89l-233 -232q-15 -15 -15 -36q0 -22 15 -37l140 -140h-441v441zM265 -218l232 233l191 -191q15 -15 36 -15q12 0 20 4q32 13 32 47
v616q0 21 -15 36t-37 15h-615q-16 0 -29 -9t-19 -23q-4 -8 -4 -19q0 -20 15 -37l192 -191l-233 -232q-15 -15 -15 -37q0 -21 15 -36l161 -161q17 -15 36 -15q20 0 37 15zM1583 -217l161 161q15 15 15 36t-15 36l-232 233l190 191q15 15 15 36q0 12 -4 20q-13 31 -47 31h-615
q-21 0 -36 -15t-15 -36v-616q0 -15 8.5 -28t22.5 -19q8 -4 20 -4q21 0 36 15l191 191l233 -232q14 -15 36 -15q21 0 36 15zM1242 124l-140 -140v441h441l-140 -140q-15 -15 -15 -36t15 -36l233 -233l-89 -89l-233 233q-15 15 -36 15t-36 -15zM387 248q0 21 -15 36l-140 140
h441v-441l-140 140q-15 15 -36 15t-36 -15l-233 -232l-88 88l232 233q15 15 15 36z" />
    <glyph glyph-name="uniE093" unicode="&#xe093;" 
d="M1252 766l235 235l193 -193q15 -15 36 -15q12 0 21 4q14 6 23 19t9 29v623q0 21 -15.5 36t-36.5 15h-623q-16 0 -29 -8.5t-19 -23.5q-4 -8 -4 -20q0 -21 15 -36l194 -194l-236 -235q-15 -15 -15 -36q0 -22 15 -37l163 -163q15 -15 37 -15t37 15zM1376 1237q0 21 -16 37
l-141 142h446v-446l-142 141q-15 15 -36 15q-22 0 -37 -15l-235 -235l-90 90l235 235q16 16 16 36zM722 -223q13 9 19 23q4 9 4 21q0 21 -15 36l-193 193l235 235q15 17 15 37q0 22 -15 37l-163 163q-17 15 -37 15q-21 0 -36 -15l-236 -236l-193 193q-15 15 -36 15
q-12 0 -21 -4q-32 -13 -32 -47v-623q0 -22 15.5 -37t36.5 -15h623q16 0 29 9zM264 177q16 -16 37 -16q20 0 36 16l235 235l90 -90l-235 -235q-15 -15 -15 -37q0 -21 15 -36l141 -142h-446v446z" />
    <glyph glyph-name="uniE094" unicode="&#xe094;" 
d="M776 759q15 15 15 36v617q0 15 -8.5 28t-22.5 19q-8 4 -20 4q-21 0 -36 -15l-192 -192l-232 233q-15 15 -36 15q-22 0 -37 -15l-161 -161q-15 -15 -15 -36q0 -22 15 -37l233 -232l-191 -192q-15 -13 -15 -35q0 -12 4 -21q13 -31 47 -31h616q21 0 36 15zM402 1023
q0 21 -15 36l-232 233l89 88l232 -232q15 -15 36 -15q22 0 37 15l140 140v-442h-441l139 140q15 15 15 37zM1600 -225l162 162q15 15 15 36t-15 36l-233 233l191 191q15 17 15 37q0 11 -4 19q-6 14 -19 22.5t-28 8.5h-616q-22 0 -37 -14.5t-15 -36.5v-616q0 -34 32 -47
q8 -4 20 -4q21 0 36 15l191 191l233 -233q15 -15 36 -15t36 15zM1259 117l-140 -141v442h441l-140 -140q-15 -15 -15 -36t15 -36l233 -233l-89 -89l-233 233q-15 15 -36 15t-36 -15z" />
    <glyph glyph-name="uniE095" unicode="&#xe095;" 
d="M1737 1283.5q36 -35.5 36 -86.5v-1075q0 -50 -36 -86t-86 -36h-450l254 205h196q17 0 29 12t12 28v893q0 17 -12 29t-29 12h-1514q-17 0 -28.5 -12t-11.5 -29v-893q0 -16 12 -28t28 -12h197l253 -205h-450q-50 0 -86 36t-36 86v1075q0 51 36 86.5t86 35.5h1514
q50 0 86 -35.5zM895 559q-240 0 -443 -84q-88 -38 -156 -84l-98 80q90 68 208 117q224 93 489 93q266 0 490 -93q112 -47 207 -116l-99 -80q-72 49 -155 83q-202 84 -443 84zM1152 185q-115 48 -257 48t-256 -48q-24 -10 -54 -26l-101 81q53 36 108 58q139 58 303 58
t303 -58q56 -23 107 -57l-101 -81q-16 9 -52 25zM895 30q65 0 119 -23l-120 -97l-119 96q54 24 120 24z" />
    <glyph glyph-name="uniE096" unicode="&#xe096;" 
d="M336 -224l1360 758q35 20 54 48.5t19 60.5q0 33 -19 61.5t-54 48.5l-1360 757q-36 21 -74 21q-52 0 -84.5 -37t-32.5 -96v-1509q0 -59 32.5 -96.5t84.5 -37.5q38 0 74 21zM279 1407l1359 -758q6 -3 9 -6l-9 -6l-1359 -757q-6 -3 -14 -6q-2 6 -2 15v1509q0 10 2 14
q5 0 14 -5z" />
    <glyph glyph-name="uniE097" unicode="&#xe097;" 
d="M606 -221.5q41 24.5 65.5 65.5t24.5 90v1412q0 49 -24.5 90t-65.5 65.5t-90 24.5h-310q-49 0 -90.5 -24.5t-66 -65.5t-24.5 -90v-1412q0 -49 24.5 -90t66 -65.5t90.5 -24.5h310q49 0 90 24.5zM1678.5 -221.5q41.5 24.5 66 65.5t24.5 90v1412q0 49 -24.5 90t-66 65.5
t-90.5 24.5h-310q-49 0 -90 -24.5t-65.5 -65.5t-24.5 -90v-1412q0 -49 24.5 -90t65.5 -65.5t90 -24.5h310q49 0 90.5 24.5zM558.5 1388.5q17.5 -17.5 17.5 -42.5v-1412q0 -25 -17.5 -42.5t-42.5 -17.5h-310q-25 0 -42.5 17.5t-17.5 42.5v1412q0 25 17.5 42.5t42.5 17.5h310
q25 0 42.5 -17.5zM1631 1388.5q18 -17.5 18 -42.5v-1412q0 -25 -18 -42.5t-43 -17.5h-310q-25 0 -42.5 17.5t-17.5 42.5v1412q0 25 17.5 42.5t42.5 17.5h310q25 0 43 -17.5z" />
    <glyph glyph-name="uniE098" unicode="&#xe098;" 
d="M1230 -175.5q161 66.5 286 191.5t191.5 286t66.5 338q0 176 -66.5 337t-191.5 286t-286 191.5t-337 66.5t-337 -66.5t-286 -191.5t-191.5 -286t-66.5 -337q0 -177 66.5 -338t191.5 -286t286 -191.5t337 -66.5t337 66.5zM1188.5 1351.5q140.5 -58.5 249.5 -167.5
t167 -249.5t58 -294.5q0 -155 -58 -295.5t-167 -249.5t-249.5 -167.5t-295.5 -58.5t-295.5 58.5t-249.5 167.5t-167 249.5t-58 295.5q0 154 58 294.5t167 249.5t249.5 167.5t295.5 58.5t295.5 -58.5z" />
    <glyph glyph-name="uniE099" unicode="&#xe099;" 
d="M346.5 -49q32.5 19 51.5 51.5t19 70.5v1167q0 38 -19 70.5t-51.5 51.5t-70.5 19h-110q-38 0 -70.5 -19t-51.5 -51.5t-19 -70.5v-1167q0 -38 19 -70.5t51.5 -51.5t70.5 -19h110q38 0 70.5 19zM1746 0q24 29 24 73v1167q0 46 -26 75.5t-67 29.5q-31 0 -59 -16l-1051 -586
q-58 -33 -58 -87t58 -87l1051 -586q30 -16 59 -16q42 0 69 33zM309.5 1273.5q13.5 -13.5 13.5 -33.5v-1167q0 -19 -13.5 -33t-33.5 -14h-110q-19 0 -33 14t-14 33v1167q0 19 14 33t33 14h110q20 0 33.5 -13.5zM612 661l1052 586q7 4 10 4q2 -4 2 -11v-1167q0 -8 -2 -12
l-10 5l-1052 586q3 -1 -7 4z" />
    <glyph glyph-name="uniE100" unicode="&#xe100;" 
d="M1764 1270q23 -26 23 -67v-1044q0 -39 -21 -63q-23 -29 -61 -29q-25 0 -51 15l-507 282v-205q0 -58 -42 -81q-19 -11 -40 -11q-25 0 -51 15l-940 524q-24 13 -37.5 32.5t-13.5 42.5q0 47 51 76l940 524q24 14 51 14q23 0 40 -10q42 -25 42 -82v-205l507 283q26 15 51 15
q36 0 59 -26zM714 606q-24 13 -37.5 32.5t-13.5 42.5q0 47 51 76l351 196v250q0 6 -2 10q-4 0 -9 -4l-940 -524q-5 -2 -6 -4l6 -4l940 -524l9 -4q2 4 2 10v251zM1703 1213q-2 0 -9 -4l-940 -524q-5 -2 -6 -4l6 -4l940 -524q8 -3 9 -4q2 4 2 10v1044q0 6 -2 10z" />
    <glyph glyph-name="uniE101" unicode="&#xe101;" 
d="M1795 681q0 -47 -51 -76l-951 -530q-25 -15 -52 -15q-21 0 -41 11q-41 25 -41 82v208l-514 -286q-25 -15 -51 -15q-37 0 -60 26t-23 67v1056q0 41 23 67.5t60 26.5q25 0 51 -15l514 -286v207q0 58 41 83q17 10 41 10q28 0 52 -14l951 -530q51 -29 51 -77zM1062 681
q-1 2 -6 4l-951 531q-7 3 -10 3l-1 -10v-1056l1 -10l10 4l951 530zM1710 681q-2 2 -7 4l-951 531q-6 3 -9 3q-1 -1 -1 -10v-253l354 -198q52 -28 52 -77q0 -48 -52 -76l-354 -198v-254q0 -8 1 -10l9 4l951 530z" />
    <glyph glyph-name="uniE102" unicode="&#xe102;" 
d="M1708 -97.5q33 19.5 52 52.5t19 72v1187q0 39 -19 72t-52 52.5t-72 19.5h-112q-39 0 -72 -19.5t-52 -52.5t-19 -72v-1187q0 -39 19 -72t52 -52.5t72 -19.5h112q39 0 72 19.5zM158 -64l1070 596q59 33 59 88q0 56 -59 89l-1070 596q-31 17 -59 17q-42 0 -69 -30t-27 -78
v-1187q0 -48 27 -78t69 -30q28 0 59 17zM1669.5 1248q13.5 -14 13.5 -34v-1187q0 -20 -13.5 -34t-33.5 -14h-112q-20 0 -34 14t-14 34v1187q0 20 14 34t34 14h112q20 0 33.5 -14zM112 1222l1070 -597l7 -5q-10 -5 -7 -4l-1070 -597q-8 -4 -11 -4q-2 4 -2 12v1187q0 8 2 12
q3 0 11 -4z" />
    <glyph glyph-name="uniE103" unicode="&#xe103;" 
d="M356 900q0 13 7 27q17 34 62 34h289v473q0 35 25.5 60.5t61.5 25.5h241q35 0 60.5 -25.5t25.5 -60.5v-473h286q45 0 62 -34q7 -14 7 -27q0 -21 -15 -42l-487 -705q-24 -33 -60 -33q-38 0 -60 33l-490 705q-15 20 -15 42zM921 218l454 657h-247q-37 0 -61 25
q-25 25 -25 61v473h-241v-1v-472q0 -36 -25.5 -61.5t-61.5 -25.5h-250zM1432.5 36.5q33.5 -19.5 53 -53t19.5 -72.5v-160h-1173v160q0 39 19.5 72.5t53 53t72.5 19.5h883q39 0 72.5 -19.5zM1402 -48q-17 17 -42 17h-883q-24 0 -41 -17t-17 -41v-74h1000v74q0 24 -17 41z" />
    <glyph glyph-name="uniE104" unicode="&#xe104;" 
d="M1282 520v-564q0 -46 -32 -78.5t-78 -32.5h-1050q-45 0 -77.5 32.5t-32.5 78.5v1228q0 46 32.5 78.5t77.5 32.5h1050q46 0 78 -32.5t32 -78.5v-102l-73 -74v176q0 16 -11 26.5t-26 10.5h-1050q-15 0 -25.5 -10.5t-10.5 -26.5v-1228q0 -16 10.5 -26.5t25.5 -10.5h1050
q15 0 26 10.5t11 26.5v490zM698 167l265 140l9 6l779 780q26 26 26 61q0 36 -26 60l-55 56q-27 25 -61 25q-36 0 -61 -25l-779 -780q-4 -3 -6 -8l-141 -266q-4 -7 -4 -17q0 -15 11 -26t26 -11q9 0 17 5zM1635 1221q6 0 9 -3l55 -56q4 -3 4 -9q0 -5 -4 -8l-775 -776l-155 -82
l82 155l775 776q3 3 9 3z" />
    <glyph glyph-name="uniE105" unicode="&#xe105;" 
d="M1708 233q36 21 57 56.5t21 77.5v832q0 42 -21 77.5t-57 56.5t-78 21h-831q-42 0 -77.5 -21t-56.5 -56.5t-21 -77.5v-832q0 -42 21 -77.5t56.5 -56.5t77.5 -21h831q42 0 78 21zM1667 1235q15 -15 15 -36v-832q0 -21 -15 -36.5t-37 -15.5h-831q-22 0 -37 15.5t-15 36.5
v832q0 21 15 36t37 15h831q22 0 37 -15zM1141 108v-127q0 -42 -21 -77.5t-57 -56.5t-78 -21h-831q-42 0 -77.5 21t-56.5 56.5t-21 77.5v832q0 42 21 77.5t56.5 56.5t77.5 21h386v-103h-386q-21 0 -36.5 -15.5t-15.5 -36.5v-832q0 -21 15.5 -36t36.5 -15h831q22 0 37 15
t15 36v127h104zM851 968h134q42 0 78 -21t57 -56.5t21 -77.5v-394h-104v394q0 21 -15 36.5t-37 15.5h-134v103z" />
    </font>
</defs>
</svg>
